Оценщица широкого профиля Кью: Глаза Моны Лизы / Bannou kanteishi Q: Mona Riza no hitomi / All-Round Appraiser Q: The Eyes of Mona Lisa (Синсуке Сато / Shinsuke Sato) [2014, Япония, фэнтези, детектив, HDRip] VO (GREEN TEA)

Ответить на тему
 
Автор Сообщение

user ®

Стаж: 13 лет

Сообщений: 15071

Пост Пост: #1 от 05-Окт-2015 15:42

[Цитировать]

Оценщица широкого профиля Кью: Глаза Моны Лизы / Универсальный оценщик Q: Взгляд Моны Лизы / Bannou kanteishi Q: Mona Riza no hitomi / All-Round Appraiser Q: The Eyes of Mona Lisa
Страна: Япония
Жанр: фэнтези, детектив
Год выпуска: 2014
Продолжительность: 01:59:06
Перевод: Одноголосый закадровый GREEN TEA
Cубтитры: нет
Режиссер: Синсуке Сато / Shinsuke Sato
В ролях: Харука Аясе, Тори Мацудзака, Эрико Хацунэ, Хироаки Мураками, Пьер Деладоншам, Uwe Liebscher
Описание: Ринда Рико оценщица и руководит собственной фирмой «Оценщица широкого профиля Кью». Администрация Лувра наняла ее в качестве временного куратора по случаю проведения выставки известной картины да Винчи «Мона Лиза» в Японии. За девушкой буквально по пятнам следует журналист Огасавара Юто в поисках материала для новой статьи. И вскоре они уже вдвоем пытаются раскрыть тайну Моны Лизы.
Сэмпл: http://multi-up.com/1069403
Качество видео: HDRip
Формат видео: AVI
Видео: XviD / 739 Kbps / 656 х 272 pix / 23.976 fps
Аудио: MPEG Layer 3 / Russian / 2.0 / 48 kHz / 128 kbps
Релиз от -
MediaInfo
General
Complete name : D:\All-Round.2014.HDRip.745mb.avi
Format : AVI
Format/Info : Audio Video Interleave
File size : 746 MiB
Duration : 1h 59mn
Overall bit rate : 876 Kbps
Writing application : VirtualDubMod 1.5.10.3 | www.virtualdub-fr.org || (build 2550/release)
Writing library : VirtualDubMod build 2550/release
Video
ID : 0
Format : MPEG-4 Visual
Format profile : Advanced Simple@L5
Format settings, BVOP : 1
Format settings, QPel : No
Format settings, GMC : No warppoints
Format settings, Matrix : Custom
Codec ID : XVID
Codec ID/Hint : XviD
Duration : 1h 59mn
Bit rate : 739 Kbps
Width : 656 pixels
Height : 272 pixels
Display aspect ratio : 2.40:1
Frame rate : 23.976 fps
Color space : YUV
Chroma subsampling : 4:2:0
Bit depth : 8 bits
Scan type : Progressive
Compression mode : Lossy
Bits/(Pixel*Frame) : 0.173
Stream size : 629 MiB (84%)
Writing library : XviD 73
Audio
ID : 1
Format : MPEG Audio
Format version : Version 1
Format profile : Layer 3
Codec ID : 55
Codec ID/Hint : MP3
Duration : 1h 59mn
Bit rate mode : Constant
Bit rate : 128 Kbps
Channel(s) : 2 channels
Sampling rate : 48.0 KHz
Compression mode : Lossy
Stream size : 109 MiB (15%)
Alignment : Aligned on interleaves
Interleave, duration : 42 ms (1.00 video frame)
Interleave, preload duratio : 504 ms
Writing library : LAME3.99r
Encoding settings : -m s -V 4 -q 2 -lowpass 17 -b 128
Скриншоты
Скачать

Скачать торрент! Оценщица широкого профиля Кью: Глаза Моны Лизы / Bannou kanteishi Q: Mona Riza no hitomi / All-Round Appraiser Q: The Eyes of Mona Lisa (Синсуке Сато / Shinsuke Sato) [2014, Япония, фэнтези, детектив, HDRip] VO (GREEN TEA)

Как скачивать? · Что такое торрент? · Рейтинг и ограничения

Сайт не распространяет и не хранит электронные версии произведений, а лишь предоставляет доступ к создаваемому пользователями каталогу ссылок на торрент-файлы, которые содержат только списки хеш-сумм

[Профиль] [ЛС]
Показать сообщения:    
Ответить на тему

Текущее время: Сегодня 10:58

Часовой пояс: GMT + 4



Вы не можете начинать темы
Вы не можете отвечать на сообщения
Вы не можете редактировать свои сообщения
Вы не можете удалять свои сообщения
Вы не можете голосовать в опросах
Вы не можете прикреплять файлы к сообщениям
Вы не можете скачивать файлы