Загадки / Загадочная Лила / Лила / Ek Paheli Leela (Бобби Кхан / Bobby Khan) [2015, Индия, Триллер, мелодрама, детектив, WEB-DLRip] MVO (SDI Media)

Ответить на тему
 
Автор Сообщение

user ®

Стаж: 12 лет

Сообщений: 15092

Пост Пост: #1 от 02-Окт-2015 13:21

[Цитировать]

Загадки / Ek Paheli Leela
Страна: Индия
Жанр: Триллер, мелодрама, детектив
Год выпуска: 2015
Продолжительность: 02:13:57
Перевод: Профессиональный (многоголосый закадровый) - SDI Media (т/к Индия ТВ)
Субтитры: Нет-Режиссер: Бобби Кхан / Bobby Khan-В ролях: Санни Леоне, Мохит Ахлават, Раджниш Дуггал, Джай Бханушали, Рахул Дев, Джас Арора, Шивани Танксале, Ахсан Куреши, Энди-Описание: Успешный музыкант Каран, переехав в новый дом, начинает замечать, что ему во снах приходит незнакомка. Друзья, обеспокоенные его странным поведением, решают отвезти Карана к священнику, который на удивление велит поехать ему в Раджастан на поиски ответов на свои вопросы.- | --Качество видео: WEB-DLRip (исх. WEB-DL 1080p)
Формат видео: AVI
Видео: 720x304 (2.37:1), 25 fps, XviD build 50 ~1420 kbps avg, 0.26 bit/pixel
Аудио: 48 kHz, MPEG Layer 3, 2 ch, ~128.00 kbps avg--Релиз-группа:
Риппер, синхронизация аудио: soso4eg
-
Сэмпл / Sample- Скриншот с названием
-
Скриншоты
-
MI
General
Complete name : H:\[Релизы]\DVDRip\Zagadki.2015.P.WEB-DLRip.XviD.BwTorrents-soso4eg.avi
Format : AVI
Format/Info : Audio Video Interleave
File size : 1.46 GiB
Duration : 2h 13mn
Overall bit rate : 1 559 Kbps
Movie name : Ek.Paheli.Leela.2015.P.HDRip.XviD.BwTorrents-soso4eg
Writing application : VirtualDubMod 1.5.10.2 (build 2540/release)
Original source form/Name : Hindi
Video
ID : 0
Format : MPEG-4 Visual
Format profile : Advanced Simple@L5
Format settings, BVOP : 1
Format settings, QPel : No
Format settings, GMC : No warppoints
Format settings, Matrix : Default (H.263)
Codec ID : XVID
Codec ID/Hint : XviD
Duration : 2h 13mn
Bit rate : 1 421 Kbps
Width : 720 pixels
Height : 304 pixels
Display aspect ratio : 2.35:1
Frame rate : 25.000 fps
Color space : YUV
Chroma subsampling : 4:2:0
Bit depth : 8 bits
Scan type : Progressive
Compression mode : Lossy
Bits/(Pixel*Frame) : 0.260
Stream size : 1.33 GiB (91%)
Writing library : XviD 1.2.1 (UTC 2008-12-04)
Audio
ID : 1
Format : MPEG Audio
Format version : Version 1
Format profile : Layer 3
Mode : Joint stereo
Mode extension : MS Stereo
Codec ID : 55
Codec ID/Hint : MP3
Duration : 2h 13mn
Bit rate mode : Constant
Bit rate : 128 Kbps
Channel(s) : 2 channels
Sampling rate : 48.0 KHz
Compression mode : Lossy
Stream size : 123 MiB (8%)
Alignment : Aligned on interleaves
Interleave, duration : 40 ms (1.00 video frame)
Interleave, preload duration : 504 ms
-
Скачать

Скачать торрент! Загадки / Загадочная Лила / Лила / Ek Paheli Leela (Бобби Кхан / Bobby Khan) [2015, Индия, Триллер, мелодрама, детектив, WEB-DLRip] MVO (SDI Media)

Как скачивать? · Что такое торрент? · Рейтинг и ограничения

Сайт не распространяет и не хранит электронные версии произведений, а лишь предоставляет доступ к создаваемому пользователями каталогу ссылок на торрент-файлы, которые содержат только списки хеш-сумм

[Профиль] [ЛС]
Показать сообщения:    
Ответить на тему

Текущее время: Сегодня 18:13

Часовой пояс: GMT + 4



Вы не можете начинать темы
Вы не можете отвечать на сообщения
Вы не можете редактировать свои сообщения
Вы не можете удалять свои сообщения
Вы не можете голосовать в опросах
Вы не можете прикреплять файлы к сообщениям
Вы не можете скачивать файлы