Розовые башмачки / Красные башмачки / The Red Shoes / Bunhongsin (Янг Кён Ким / Yong-gyun Kim) [2005, Южная Корея, Ужасы, драма, DVDRip-AVC] (Расширенная версия) DVO (DeadSno & Den904)

Ответить на тему
 
Автор Сообщение

user ®

Стаж: 13 лет

Сообщений: 15071

Пост Пост: #1 от 30-Сен-2015 11:51

[Цитировать]

Розовые башмачки / Красные башмачки (Расширенная версия) / The Red Shoes / Bunhongsin
Страна: Южная Корея
Жанр: Ужасы, драма
Год выпуска: 2005
Продолжительность: 01:48:11
Перевод: Любительский (двухголосый закадровый) DeadSno & Den904 по переводу sergik1
Cубтитры: нет
Режиссер: Янг Кён Ким / Yong-gyun Kim
В ролях: Хе Су Ким, Сон Су Ким, Юн А Пак, Су Хи Го, Чжи Ын Ким, Хён Чжин Са, Ён Нё Ли, Джин Вон Со
Описание: Женщина находит розовые туфли в вагоне метро. Она, не раздумывая, подбирает их и приносит домой. Вскоре, начинают портиться её отношения со своей маленькой дочерью. К тому же, сами туфли хранят страшную тайну и способны убивать каждого, кто хоть раз надевал их. В опасности оказывается не только женщина, но и её дочь, которая, в тайне от мамы, примеряла туфли…
Доп. информация: Режиссёрская версия фильма. Присутствуют вырезанные сцены из основной версии
Сэмпл: http://multi-up.com/1068722
Качество видео: DVDRip-AVC
Формат видео: MKV
Видео: AVC, 720x304, 1999 kbps, 23.976 fps
Аудио: AC-3, 448 kbps, 48 kHZ, 6 ch
MediaInfo
Format: Matroska
Format version: Version 4 / Version 2
File size: 1.85 GiB
Duration: 1h 48mn
Overall bit rate: 2 447 Kbps
Encoded date: UTC 2015-09-28 19:09:20
Writing application: mkvmerge v6.2.0 ('Promised Land') built on Apr 28 2013 12:22:01
Writing library: libebml v1.3.0 + libmatroska v1.4.0
Format: AVC
Format/Info: Advanced Video Codec
Format profile: High@L4.1
Format settings, CABAC: Yes
Format settings, ReFrames: 5 frames
Codec ID: V_MPEG4/ISO/AVC
Duration: 1h 48mn
Bit rate: 1 999 Kbps
Width: 720 pixels
Height: 304 pixels
Display aspect ratio: 2.35:1
Frame rate mode: Constant
Frame rate: 23.976 fps
Color space: YUV
Chroma subsampling: 4:2:0
Bit depth: 8 bits
Scan type: Progressive
Bits/(Pixel*Frame): 0.381
Stream size: 1.47 GiB (80%)
Writing library: x264 core 129 r2230 1cffe9f
Encoding settings: cabac=1 / ref=5 / deblock=1:-3:-3 / analyse=0x3:0x113 / me=umh / subme=7 / psy=1 / psy_rd=1.00:0.15 / mixed_ref=1 / me_range=16 / chroma_me=1 / trellis=2 / 8x8dct=1 / cqm=0 / deadzone=21,11 / fast_pskip=1 / chroma_qp_offset=-6 / threads=3 / lookahead_threads=1 / sliced_threads=0 / nr=0 / decimate=1 / interlaced=0 / bluray_compat=0 / constrained_intra=0 / bframes=3 / b_pyramid=2 / b_adapt=2 / b_bias=0 / direct=1 / weightb=1 / open_gop=0 / weightp=2 / keyint=240 / keyint_min=23 / scenecut=40 / intra_refresh=0 / rc=2pass / mbtree=0 / bitrate=1999 / ratetol=1.0 / qcomp=0.60 / qpmin=0 / qpmax=69 / qpstep=4 / cplxblur=20.0 / qblur=0.5 / ip_ratio=1.40 / pb_ratio=1.30 / aq=1:1.00
Default: Yes
Forced: No
Format: AC-3
Format/Info: Audio Coding 3
Mode extension: CM (complete main)
Format settings, Endianness: Big
Codec ID: A_AC3
Duration: 1h 48mn
Bit rate mode: Constant
Bit rate: 448 Kbps
Channel(s): 6 channels
Channel positions: Front: L C R, Side: L R, LFE
Sampling rate: 48.0 KHz
Bit depth: 16 bits
Compression mode: Lossy
Stream size: 347 MiB (18%)
Default: Yes
Forced: No
Скриншот c названием фильма Скриншоты
Скачать

Скачать торрент! Розовые башмачки / Красные башмачки / The Red Shoes / Bunhongsin (Янг Кён Ким / Yong-gyun Kim) [2005, Южная Корея, Ужасы, драма, DVDRip-AVC] (Расширенная версия) DVO (DeadSno & Den904)

Как скачивать? · Что такое торрент? · Рейтинг и ограничения

Сайт не распространяет и не хранит электронные версии произведений, а лишь предоставляет доступ к создаваемому пользователями каталогу ссылок на торрент-файлы, которые содержат только списки хеш-сумм

[Профиль] [ЛС]
Показать сообщения:    
Ответить на тему

Текущее время: Сегодня 22:12

Часовой пояс: GMT + 4



Вы не можете начинать темы
Вы не можете отвечать на сообщения
Вы не можете редактировать свои сообщения
Вы не можете удалять свои сообщения
Вы не можете голосовать в опросах
Вы не можете прикреплять файлы к сообщениям
Вы не можете скачивать файлы