Беспощадный шторм / Final Storm (Уве Болл / Uwe Boll) [2010, Германия / Канада, ужасы, боевик, HDRip] MVO

Ответить на тему
 
Автор Сообщение

user ®

Стаж: 7 лет 7 месяцев

Сообщений: 20008

Пост Пост: #1 от 02-Дек-2010 00:37

[Цитировать]

Беспощадный шторм / Final Storm
-Страна: Германия / Канада
Жанр: ужасы, боевик
Год выпуска: 2010
Продолжительность: 01:31:54-Перевод: Профессиональный (многоголосый закадровый)|[лицензия]
Cубтитры: нет
Режиссер: Уве Болл / Uwe Boll-В ролях: Стив Бачич, Лорен Холли, Люк Перри, Коул Хэппелл, Блу Манкума, Майкл Эклунд-Описание: Сюжет разворачивается во время шторма, когда на ферме главных персонажей Тома и Джиллиан появляется таинственный незнакомец Силас и просит укрытия. Силас оказывается единственным, кто способен помочь Тому, Джиллиан и их маленькому сыну выжить, но пока семья оценивает масштабы стихии, им начинает угрожать нечто более страшное, чем силы природы.-Сэмпл: Тыц!-Качество видео: HDRip (Источник не известен)
Формат видео: AVI-Видео: XviD, 624x256, 23.976 fps, ~ 926 Kbit/s
Аудио: MP3, 44100 Гц, 2 каналов,128 kbit/s

MediaInfo

General
Complete name : D:\films\Besposhadniy.storm.2010.P.HDRip.700MB.avi
Format : AVI
Format/Info : Audio Video Interleave
File size : 699 MiB
Duration : 1h 31mn
Overall bit rate : 1 064 Kbps
Writing application : VirtualDubMod 1.5.4.1 (build 2178/release)
Writing library : VirtualDubMod build 2178/release
Video
ID : 0
Format : MPEG-4 Visual
Format profile : Advanced Simple@L5
Format settings, BVOP : Yes
Format settings, QPel : No
Format settings, GMC : No warppoints
Format settings, Matrix : Custom
Codec ID : XVID
Codec ID/Hint : XviD
Duration : 1h 31mn
Bit rate : 927 Kbps
Width : 624 pixels
Height : 256 pixels
Display aspect ratio : 2.40:1
Frame rate : 23.976 fps
Color space : YUV
Chroma subsampling : 4:2:0
Bit depth : 8 bits
Scan type : Progressive
Bits/(Pixel*Frame) : 0.242
Stream size : 609 MiB (87%)
Writing library : XviD 1.2.1 (UTC 2008-12-04)
Audio
ID : 1
Format : MPEG Audio
Format version : Version 1
Format profile : Layer 3
Codec ID : 55
Codec ID/Hint : MP3
Duration : 1h 31mn
Bit rate mode : Constant
Bit rate : 128 Kbps
Channel(s) : 2 channels
Sampling rate : 48.0 KHz
Stream size : 84.1 MiB (12%)
Alignment : Aligned on interleaves
Interleave, duration : 42 ms (1.00 video frame)
Interleave, preload duration : 504 ms
Writing library : LAME3.98r
Encoding settings : -m s -V 4 -q 2 -lowpass 17 -b 128

Скриншот c названием фильма

Скриншоты

Скачать

Скачать торрент!

Как скачивать? · Что такое торрент? · Рейтинг и ограничения

Сайт не распространяет и не хранит электронные версии произведений, а лишь предоставляет доступ к создаваемому пользователями каталогу ссылок на торрент-файлы, которые содержат только списки хеш-сумм

[Профиль] [ЛС]
Показать сообщения:    
Ответить на тему

Текущее время: Сегодня 08:41

Часовой пояс: GMT + 4



Вы не можете начинать темы
Вы не можете отвечать на сообщения
Вы не можете редактировать свои сообщения
Вы не можете удалять свои сообщения
Вы не можете голосовать в опросах
Вы не можете прикреплять файлы к сообщениям
Вы не можете скачивать файлы