Что творят мужчины 2 (Сарик Андреасян) [2015, Россия, комедия, HDTV 1080i] Original Rus

Ответить на тему
 
Автор Сообщение

user ®

Стаж: 7 лет 7 месяцев

Сообщений: 20008

Пост Пост: #1 от 21-Сен-2015 14:06

[Цитировать]

Что творят мужчины 2 Страна: Россия
Жанр: комедия
Год выпуска: 2015
Продолжительность: 01:32:36
Перевод: Не требуется
Cубтитры: нет
Оригинальная аудиодорожка: русский
Режиссер: Сарик Андреасян
В ролях: Таир Мамедов, Роман Юнусов, Дмитрий Кожома, Никита Джигурда, Настя Задорожная, Петр Винс, Вадим Цаллати, Наталья Рудова, Елена Борщева, Елена Беркова
Описание: России угрожает страшная опасность! Бывший сисадмин Секретного Военного Подразделения, уехавший в Америку, запустил вирус для взлома системы безопасности, что грозит всем нам страшными последствиями. Чтобы остановить программу, нужен пароль — слово, которое произносит бывшая подружка хакера, когда испытывает оргазм. Это всего лишь одно слово, но за последний год у злодея было десяток подружек, и с каждой был секс… и все они в Лос-Анджелесе! Спасти страну призваны главные специалисты по женщинам — Даниэль, Гоша и Виталик.
Сэмпл: http://sendfile.su/1155755

Тип релиза: HDTV 1080i
Контейнер: TS
Видео: AVC/H.264, PAL, 1920x1080 (16:9), 9234 Кбит/сек, 25.000 fps
Аудио 1: русский, MP2, 2ch, 48,0 КГц, 192 Кбит/сек
Аудио 2: русский, AC3, 6ch, 48,0 КГц, 448 Кбит/сек
MediaInfo
Общее
Идентификатор : 1 (0x1)
Полное имя : F:\раздачи\Что творят мужчины 2.ts
Формат : MPEG-TS
Размер файла : 5,93 Гбайт
Продолжительность : 1 ч. 21 м.
Режим общего битрейта : Переменный
Общий поток : 10,4 Мбит/сек
Видео
Идентификатор : 3551 (0xDDF)
Идентификатор меню : 1 (0x1)
Формат : AVC
Формат/Информация : Advanced Video Codec
Профиль формата : Main@L4.0
Параметр CABAC формата : Да
Параметр ReFrames формата : 3 кадра
Идентификатор кодека : 27
Продолжительность : 1 ч. 21 м.
Битрейт : 9234 Кбит/сек
Ширина : 1920 пикселей
Высота : 1080 пикселей
Соотношение сторон : 16:9
Частота кадров : 25,000 кадров/сек
Стандарт вещания : Component
Цветовое пространство : YUV
Субдискретизация насыщенности : 4:2:0
Битовая глубина : 8 бит
Тип развёртки : Чересстрочная
Порядок развёртки : Верхнее поле первое
Бит/(Пиксели*Кадры) : 0.178
Размер потока : 5,27 Гбайт (89%)
Основные цвета : BT.709
Характеристики трансфера : BT.709
Коэффициенты матрицы : BT.709
colour_range : Limited
Аудио #1
Идентификатор : 3552 (0xDE0)
Идентификатор меню : 1 (0x1)
Формат : MPEG Audio
Версия формата : Version 1
Профиль формата : Layer 2
Идентификатор кодека : 3
Продолжительность : 1 ч. 21 м.
Вид битрейта : Постоянный
Битрейт : 192 Кбит/сек
Каналы : 2 канала
Частота : 48,0 КГц
Метод сжатия : С потерями
Размер потока : 112 Мбайт (2%)
Язык : Russian
Аудио #2
Идентификатор : 3553 (0xDE1)
Идентификатор меню : 1 (0x1)
Формат : AC-3
Формат/Информация : Audio Coding 3
Расширение режима : CM (complete main)
Параметр Endianness формата : Big
Идентификатор кодека : 6
Продолжительность : 1 ч. 21 м.
Вид битрейта : Постоянный
Битрейт : 448 Кбит/сек
Каналы : 6 каналов
Расположение каналов : Front: L C R, Side: L R, LFE
Частота : 48,0 КГц
Битовая глубина : 16 бит
Метод сжатия : С потерями
Размер потока : 262 Мбайт (4%)
Язык : Russian
Скриншоты
Скачать

Скачать торрент!

Как скачивать? · Что такое торрент? · Рейтинг и ограничения

Сайт не распространяет и не хранит электронные версии произведений, а лишь предоставляет доступ к создаваемому пользователями каталогу ссылок на торрент-файлы, которые содержат только списки хеш-сумм

[Профиль] [ЛС]
Показать сообщения:    
Ответить на тему

Текущее время: Сегодня 00:21

Часовой пояс: GMT + 4



Вы не можете начинать темы
Вы не можете отвечать на сообщения
Вы не можете редактировать свои сообщения
Вы не можете удалять свои сообщения
Вы не можете голосовать в опросах
Вы не можете прикреплять файлы к сообщениям
Вы не можете скачивать файлы