Пусть сердце бьётся / Dil Dhadakne Do (Зоя Ахтар / Zoya Akhtar) [2015, Индия, мелодрама, комедия DVDRip] Sub Rus

Ответить на тему
 
Автор Сообщение

user ®

Стаж: 12 лет

Сообщений: 15092

Пост Пост: #1 от 04-Сен-2015 10:18

[Цитировать]

Пусть сердце бьётся / Dil Dhadakne Do Страна: Индия
Жанр: Мелодрама, комедия
Год выпуска: 2015
Продолжительность: 02:53:51
Перевод: Субтитры
Cубтитры: русские
Оригинальная аудиодорожка: Хинди
Режиссер: Зоя Ахтар / Zoya Akhtar
В ролях: Приянка Чопра, Ранвир Сингх, Анушка Шарма, Фархан Ахтар, Анил Капур, Рахул Босе, Шефали Шетти, Зарина Вахаб
Описание: В фильме рассказывается история богатой пенджабской семьи, в которой много разногласий из-за разных мировоззрений и идеалов. Действие разворачивается во время круиза.

Перевод: Vasantsena
Редакция: Lauri
Художественная обработка перевода песен: joyjoyjoy (raaj)
Запрещено использование релиза в коммерческих целях, а также использование субтитров без согласия автора.
При размещении на других сайтах просьба полностью сохранять оформление.

Качество видео: DVDRip
Формат видео: AVI
Видео: DivX 720x304 23,98fps 1005Kbps
Аудио: AC3, stereo, 192 Кбит/с, 48,0 КГц
Формат субтитров: hardsub (неотключаемые)
MediaInfo
General
Complete name : E:\Pust.serdtce.byotsya.2015.DVDRip.XviD.avi
Format : AVI
Format/Info : Audio Video Interleave
File size : 1.46 GiB
Duration : 2h 53mn
Overall bit rate : 1 206 Kbps
Writing application : VirtualDubMod 1.5.10.3 | www.virtualdub-fr.org || (build 2550/release)
Writing library : VirtualDubMod build 2550/release
Video
ID : 0
Format : MPEG-4 Visual
Format profile : Advanced Simple@L5
Format settings, BVOP : 1
Format settings, QPel : No
Format settings, GMC : No warppoints
Format settings, Matrix : Default (MPEG)
Codec ID : XVID
Codec ID/Hint : XviD
Duration : 2h 53mn
Bit rate : 1 005 Kbps
Width : 720 pixels
Height : 304 pixels
Display aspect ratio : 2.35:1
Frame rate : 23.976 fps
Color space : YUV
Chroma subsampling : 4:2:0
Bit depth : 8 bits
Scan type : Progressive
Compression mode : Lossy
Bits/(Pixel*Frame) : 0.191
Stream size : 1.22 GiB (83%)
Writing library : XviD 1.2.1 (UTC 2008-12-04)
Audio
ID : 1
Format : AC-3
Format/Info : Audio Coding 3
Mode extension : CM (complete main)
Format settings, Endianness : Big
Codec ID : 2000
Duration : 2h 53mn
Bit rate mode : Constant
Bit rate : 192 Kbps
Channel(s) : 2 channels
Channel positions : Front: L R
Sampling rate : 48.0 KHz
Compression mode : Lossy
Stream size : 239 MiB (16%)
Alignment : Split accross interleaves
Interleave, duration : 42 ms (1.00 video frame)
Interleave, preload duration : 500 ms
Скриншот c названием фильма Скриншоты
Скачать

Скачать торрент! Пусть сердце бьётся / Dil Dhadakne Do (Зоя Ахтар / Zoya Akhtar) [2015, Индия, мелодрама, комедия DVDRip] Sub Rus

Как скачивать? · Что такое торрент? · Рейтинг и ограничения

Сайт не распространяет и не хранит электронные версии произведений, а лишь предоставляет доступ к создаваемому пользователями каталогу ссылок на торрент-файлы, которые содержат только списки хеш-сумм

[Профиль] [ЛС]
Показать сообщения:    
Ответить на тему

Текущее время: Сегодня 16:18

Часовой пояс: GMT + 4



Вы не можете начинать темы
Вы не можете отвечать на сообщения
Вы не можете редактировать свои сообщения
Вы не можете удалять свои сообщения
Вы не можете голосовать в опросах
Вы не можете прикреплять файлы к сообщениям
Вы не можете скачивать файлы