Искусство боя / Ssa-um-ui Gi-sool / Art of Fighting (Хан-соль Шин / Han-sol Shin) [2006, Корея Южная, драма, комедия, DVDRip] VO (Mal)

Ответить на тему
 
Автор Сообщение

user ®

Стаж: 13 лет

Сообщений: 15071

Пост Пост: #1 от 03-Сен-2015 21:57

[Цитировать]

Искусство боя / Ssa-um-ui Gi-sool / Art of Fighting
Страна: Корея Южная
Жанр: драма, комедия
Год выпуска: 2006
Продолжительность: 01:38:07
Перевод: Одноголосый (закадровый) [Mal]
Оригинальная аудиодорожка: нет
Cубтитры:нет
Режиссер: Хан-соль Шин / Han-sol Shin
В ролях: Пэк Юн Сик, Сын-хён Бьон, Чхве Ё Чжин, Юн-жу ду, Hae-Yeon Gil, Ким Ын Су, Ли Хун Кён, Пак Ки Ун, Сон Бён Вук
Описание: Буюнгтая отец переводит в новую школу, и все бы хорошо, если бы он, только не приглянулся местным гопникам, под руководством шестерки мафии Пако, для издевательства над ним. И вот после очередного унижения парень решает, научится драться, но денег у него нет, помощи отца ждать, увы, не приходится, и окружают одни дешевые выпендрежники. К счастью для него, когда вроде бы рассчитывать уже не на что и похоже, что учится, придется по дешевым книжкам боевых искусств, в общежитие, где он живет въезжает загадочный постоялец, у которого на лице написано, не трогай убью. Буюнгтай начинает делать все возможное, чтобы привлечь к себе внимание гостя
и чтобы тот начал его обучать приемам каратэ, но человек загадка, ни в какую не соглашается..
Релиз:

Качество: DVDRip
Контейнер: AVI
Видео: 688x512 (1.34:1), 23.976 fps, XviD build 50 ~1931 kbps avg, 0.23 bit/pixel
Аудио: 48 kHz, MPEG Layer 3, 2 ch, ~128.00 kbps avg

MI
Общее
Полное имя : D:\Мои рипы\The Art Of Fightin_1400_DVDRip_Некул.avi
Формат : AVI
Формат/Информация : Audio Video Interleave
Размер файла : 1,46 Гбайт
Продолжительность : 1 ч. 38 м.
Общий поток : 2133 Кбит/сек
Программа кодирования : VirtualDubMod 1.5.10.3 | www.virtualdub-fr.org || (build 2550/release)
Библиотека кодирования : VirtualDubMod build 2550/release
Видео
Идентификатор : 0
Формат : MPEG-4 Visual
Профиль формата : Advanced Simple@L5
Параметр BVOP формата : 1
Параметр QPel формата : Нет
Параметр GMC формата : Без точки перехода
Параметр матрицы формата : Default (MPEG)
Идентификатор кодека : XVID
Идентификатор кодека/Подсказка : XviD
Продолжительность : 1 ч. 38 м.
Битрейт : 1932 Кбит/сек
Ширина : 688 пикселей
Высота : 512 пикселей
Соотношение сторон : 4:3
Частота кадров : 23,976 кадра/сек
Цветовое пространство : YUV
Субдискретизация насыщенности : 4:2:0
Битовая глубина : 8 бит
Тип развёртки : Прогрессивная
Метод сжатия : С потерями
Бит/(Пиксели*Кадры) : 0.229
Размер потока : 1,33 Гбайт (91%)
Библиотека кодирования : XviD 1.2.1 (UTC 2008-12-04)
Аудио
Идентификатор : 1
Формат : AC-3
Формат/Информация : Audio Coding 3
Расширение режима : CM (complete main)
Параметр Endianness формата : Big
Идентификатор кодека : 2000
Продолжительность : 1 ч. 38 м.
Вид битрейта : Постоянный
Битрейт : 192 Кбит/сек
Каналы : 2 канала
Расположение каналов : Front: L R
Частота : 48,0 КГц
Битовая глубина : 16 бит
Метод сжатия : С потерями
Размер потока : 135 Мбайт (9%)
Выравнивание : Разделение по промежуткам
Продолжительность промежутка : 42 мс. (1,00 видеокадр)
Время предзагрузки промежутка : 500 мс.
Скриншоты
Скачать

Скачать торрент! Искусство боя / Ssa-um-ui Gi-sool / Art of Fighting (Хан-соль Шин / Han-sol Shin) [2006, Корея Южная, драма, комедия, DVDRip] VO (Mal)

Как скачивать? · Что такое торрент? · Рейтинг и ограничения

Сайт не распространяет и не хранит электронные версии произведений, а лишь предоставляет доступ к создаваемому пользователями каталогу ссылок на торрент-файлы, которые содержат только списки хеш-сумм

[Профиль] [ЛС]
Показать сообщения:    
Ответить на тему

Текущее время: Сегодня 11:55

Часовой пояс: GMT + 4



Вы не можете начинать темы
Вы не можете отвечать на сообщения
Вы не можете редактировать свои сообщения
Вы не можете удалять свои сообщения
Вы не можете голосовать в опросах
Вы не можете прикреплять файлы к сообщениям
Вы не можете скачивать файлы