Музыка / Saaz (Саи Паранджап / Sai Paranjape) [1997, Индия, Мюзикл, драма, WEBRip] MVO (Zee Tv)

Ответить на тему
 
Автор Сообщение

user ®

Стаж: 12 лет

Сообщений: 15092

Пост Пост: #1 от 03-Сен-2015 00:18

[Цитировать]

Музыка / Saaz
Страна: Индия
Жанр: Мюзикл, драма
Год выпуска: 1997
Продолжительность: 02:27:58
Перевод: Профессиональный (многоголосый закадровый) Zee Tv
Cубтитры: нет
Режиссер: Саи Паранджап / Sai Paranjape
В ролях: Шабана Азми, Аруна Ирани, Закир Хусейн, Айеша Дхаркер, Парикшит Сахни, Рагувир Ядав
Описание: Сестры Манси и Банси после смерти родителей приезжают в Мумбай. Привитая их отцом любовь к музыке и, наделенные прекрасными голосами, каждая делает свой выбор. Манси с помощью композитора по имени Индранил делает карьеру в киноиндустрии, а Банси выходит замуж и занимается воспитанием детей. Когда Индранил предложил Банси попробовать свои силы в музыке, сестры становятся заклятыми конкурентками. Смогут ли сестры вновь обрести мир и взаимопонимание?
Доп. информация: Запись, сведение звука: oktober (Спасибо!)
Сэмпл: http://multi-up.com/1064813
Качество видео: WEBRip
Формат видео: AVI
Видео: XviD build 50, 688x400 (1.72:1), 24 fps, 1275 kbps avg
Аудио: MPEG Layer 3, 48 kHz, 2/0 (L,R) ch, 128.00 kbps
MediaInfo
General
Complete name : F:\Музыка\Muzika.1997.XviD.WEBRip.avi
Format : AVI
Format/Info : Audio Video Interleave
File size : 1.46 GiB
Duration : 2h 27mn
Overall bit rate : 1 413 Kbps
Writing application : VirtualDubMod 1.5.10.2 (build 2540/release)
Writing library : VirtualDubMod build 2540/release
Video
ID : 0
Format : MPEG-4 Visual
Format profile : AdvancedSimple@L5
Format settings, BVOP : Yes
Format settings, QPel : No
Format settings, GMC : No warppoints
Format settings, Matrix : Custom
Codec ID : XVID
Codec ID/Hint : XviD
Duration : 2h 27mn
Bit rate : 1 276 Kbps
Width : 688 pixels
Height : 400 pixels
Display aspect ratio : 16/9
Frame rate : 24.000 fps
Resolution : 24 bits
Colorimetry : 4:2:0
Scan type : Progressive
Bits/(Pixel*Frame) : 0.193
Stream size : 1.32 GiB (90%)
Writing library : XviD 1.2.1 (UTC 2008-12-04)
Audio
ID : 1
Format : MPEG Audio
Format version : Version 1
Format profile : Layer 3
Codec ID : 55
Codec ID/Hint : MP3
Duration : 2h 27mn
Bit rate mode : Constant
Bit rate : 128 Kbps
Channel(s) : 2 channels
Sampling rate : 48.0 KHz
Resolution : 16 bits
Stream size : 135 MiB (9%)
Alignment : Aligned on interleaves
Interleave, duration : 42 ms (1.00 video frame)
Interleave, preload duration : 504 ms
Скриншоты
Скачать

Скачать торрент! Музыка / Saaz (Саи Паранджап / Sai Paranjape) [1997, Индия, Мюзикл, драма, WEBRip] MVO (Zee Tv)

Как скачивать? · Что такое торрент? · Рейтинг и ограничения

Сайт не распространяет и не хранит электронные версии произведений, а лишь предоставляет доступ к создаваемому пользователями каталогу ссылок на торрент-файлы, которые содержат только списки хеш-сумм

[Профиль] [ЛС]
Показать сообщения:    
Ответить на тему

Текущее время: Сегодня 19:42

Часовой пояс: GMT + 4



Вы не можете начинать темы
Вы не можете отвечать на сообщения
Вы не можете редактировать свои сообщения
Вы не можете удалять свои сообщения
Вы не можете голосовать в опросах
Вы не можете прикреплять файлы к сообщениям
Вы не можете скачивать файлы