Дилемма / Крушение лодки / Kashma Kash (Ритупарно Гхош / Rituparno Ghosh) [2011, Индия, Драма, DVDRip] MVO (Red Media) + MVO (Zee Tv) + Sub Rus (на песни)

Ответить на тему
 
Автор Сообщение

user ®

Стаж: 12 лет

Сообщений: 15092

Пост Пост: #1 от 01-Сен-2015 23:27

[Цитировать]

Дилемма / Крушение лодки / Kashma Kash
Страна: Индия
Жанр: Драма
Год выпуска: 2011
Продолжительность: 02:00:50
Перевод: Профессиональный (многоголосый закадровый) Red Media
Перевод 2: Профессиональный (многоголосый закадровый) Zee Tv
Cубтитры: русские (только на тексты песен)
Режиссер: Ритупарно Гхош / Rituparno Ghosh
В ролях: Джишу Сенгупта, Райма Сен, Рия Сен, Прасенджит Чаттерджи, Суманта Мукхерджи, Лабони Саркар, Дхритиман Чаттерджи, Амму Чаттерджи
Описание: По настоянию отца Рамеш вынужден жениться на дочери бедной вдовы. Ему пришлось отказаться от его любимой девушки, Хемналини. По пути в Калькуту Рамеш и его новая жена попадают в шторм. Пережив шторм он оказывается в совершенно неожиданной ситуации.
Фильм основан на произведении Рабиндраната Тагора "Наукадуби" (Крушение лодки).
По индуистскому обычаю жена не должна называть мужа по имени. Это может принести ему несчастье.
Доп. информация: Видеоряд и субтитры на песни взяты с раздачи [url=http://***/forum/viewtopic.php?t=3738657]zvezdochkamoya[/url] спасибо автору!
Синхронизация звука: oktober (спасибо!)
Перевод субтитров к песням: Margosha (спасибо!)
Сэмпл: http://multi-up.com/1064686
Качество видео: DVDRip
Формат видео: AVI
Видео: XviD build 50, 640x272 (2.35:1), 25 fps, 1266 kbps avg
Аудио: Rus MPEG Layer 3, 48 kHz, 2/0 (L,R) ch, 192.00 kbps - Red Media
Аудио 2: Rus AC3 Dolby Digital, 48 kHz, 2/0 (L,R) ch, 256.00 kbps - Zee Tv
MediaInfo
General
Complete name : F:\Дилемма\Dillema.2011.DVDRip\Dillema.2011.DVDRip.avi
Format : AVI
Format/Info : Audio Video Interleave
File size : 1.46 GiB
Duration : 2h 0mn
Overall bit rate : 1 730 Kbps
Writing application : VirtualDubMod 1.5.10.2 (build 2540/release)
Writing library : VirtualDubMod build 2540/release
Video
ID : 0
Format : MPEG-4 Visual
Format profile : AdvancedSimple@L5
Format settings, BVOP : Yes
Format settings, QPel : Yes
Format settings, GMC : No warppoints
Format settings, Matrix : Default (H.263)
Codec ID : XVID
Codec ID/Hint : XviD
Duration : 2h 0mn
Bit rate : 1 268 Kbps
Width : 640 pixels
Height : 272 pixels
Display aspect ratio : 2.35
Frame rate : 25.000 fps
Resolution : 24 bits
Colorimetry : 4:2:0
Scan type : Progressive
Bits/(Pixel*Frame) : 0.291
Stream size : 1.07 GiB (73%)
Writing library : XviD 1.2.1 (UTC 2008-12-04)
Audio #1
ID : 1
Format : MPEG Audio
Format version : Version 1
Format profile : Layer 3
Codec ID : 55
Codec ID/Hint : MP3
Duration : 2h 0mn
Bit rate mode : Constant
Bit rate : 192 Kbps
Channel(s) : 2 channels
Sampling rate : 48.0 KHz
Resolution : 16 bits
Stream size : 166 MiB (11%)
Alignment : Aligned on interleaves
Interleave, duration : 40 ms (1.00 video frame)
Interleave, preload duration : 504 ms
Writing library : LAME3.97
Audio #2
ID : 2
Format : AC-3
Format/Info : Audio Coding 3
Codec ID : 2000
Duration : 2h 0mn
Bit rate mode : Constant
Bit rate : 256 Kbps
Channel(s) : 2 channels
Channel positions : L R
Sampling rate : 48.0 KHz
Stream size : 221 MiB (15%)
Alignment : Split accross interleaves
Interleave, duration : 40 ms (1.00 video frame)
Interleave, preload duration : 500 ms
Скриншоты Сравнения
[url=http://***/forum/viewtopic.php?t=4262353]http://***/forum/viewtopic.php?t=4262353[/url] => http://screenshotcomparison.com/comparison/140832/picture:0
перевод Red Media
Скачать

Скачать торрент! Дилемма / Крушение лодки / Kashma Kash (Ритупарно Гхош / Rituparno Ghosh) [2011, Индия, Драма, DVDRip] MVO (Red Media) + MVO (Zee Tv) + Sub Rus (на песни)

Как скачивать? · Что такое торрент? · Рейтинг и ограничения

Сайт не распространяет и не хранит электронные версии произведений, а лишь предоставляет доступ к создаваемому пользователями каталогу ссылок на торрент-файлы, которые содержат только списки хеш-сумм

[Профиль] [ЛС]
Показать сообщения:    
Ответить на тему

Текущее время: Сегодня 16:11

Часовой пояс: GMT + 4



Вы не можете начинать темы
Вы не можете отвечать на сообщения
Вы не можете редактировать свои сообщения
Вы не можете удалять свои сообщения
Вы не можете голосовать в опросах
Вы не можете прикреплять файлы к сообщениям
Вы не можете скачивать файлы