Кулак легенды: Возвращение Чен Жена / Legend of the Fist: The Return of Chen Zhen / Jing mo fung wan: Chen Zhen (Вэй Кеунг Лау / Wai-keung Lau) [2010, Гонконг, Китай, боевик, драма, история, HDRip] DVO (BBC Saint-Petersburg)

Ответить на тему
 
Автор Сообщение

user ®

Стаж: 11 лет

Сообщений: 15151

Пост Пост: #1 от 19-Ноя-2010 16:25

[Цитировать]

Кулак легенды: Возвращение Чен Жена / Legend of the Fist: The Return of Chen Zhen / Jing mo fung wan: Chen Zhen
Страна: Гонконг, Китай, Media Asia Films / Enlight Pictures
Жанр: боевик, драма, история
Год выпуска: 2010
Продолжительность: 01:45:22
Перевод: Профессиональный (двухголосый закадровый) (BBC Saint-Petersburg)
Cубтитры: нет
Режиссер: Вэй Кеунг Лау / Wai-keung Lau
В ролях: Донни Ен, Шу Ци, Ясуаки Курата, Энтони Вонг Чау-Санг, Шон Юе Рю Кошат, Карл Игнэкзэк, Хуанг Во, Джиэджия Чен, Сайан Го
Описание: Спустя семь лет после смерти Чен Чжена, который, как выяснилось был убит во время войны, в Шанхай приезжает таинственный незнакомец из-за границы и оказывает поддержку местному боссу мафии. Этот человек и есть замаскированный Чен Чжен, который намеревается проникнуть в круги власти, и нанести свой удар, если Шанхай заключит союз с японцами…
6.2/10 (537 votes)

Релиз группы
Семпл
Качество видео: HDRip (Исходник не известен)
Формат видео: AVI
Видео: Video: 720x304 (2.37:1), 23.976 fps, XviD build 50 ~1399 kbps avg, 0.27 bit/pixel
Аудио: Audio: 48 kHz, AC3 Dolby Digital, 3/2 (L,C,R,l,r) + LFE ch, ~448.00 kbps avg

MediaInfo

General
Complete name : E:\Torrent\Kulak.legendy.2010.P.HDRip.ELEKTRI4KA.avi
Format : AVI
Format/Info : Audio Video Interleave
File size : 1.37 GiB
Duration : 1h 45mn
Overall bit rate : 1 857 Kbps
Writing application : VirtualDubMod 1.5.10.2 (build 2540/release)
Writing library : VirtualDubMod build 2540/release
Video
ID : 0
Format : MPEG-4 Visual
Format profile : Advanced Simple@L5
Format settings, BVOP : Yes
Format settings, QPel : No
Format settings, GMC : No warppoints
Format settings, Matrix : Default (H.263)
Codec ID : XVID
Codec ID/Hint : XviD
Duration : 1h 45mn
Bit rate : 1 400 Kbps
Width : 720 pixels
Height : 304 pixels
Display aspect ratio : 2.35:1
Frame rate : 23.976 fps
Color space : YUV
Chroma subsampling : 4:2:0
Bit depth : 8 bits
Scan type : Progressive
Bits/(Pixel*Frame) : 0.267
Stream size : 1.03 GiB (75%)
Writing library : XviD 1.2.1 (UTC 2008-12-04)
Audio
ID : 1
Format : AC-3
Format/Info : Audio Coding 3
Mode extension : CM (complete main)
Codec ID : 2000
Duration : 1h 45mn
Bit rate mode : Constant
Bit rate : 448 Kbps
Channel(s) : 6 channels
Channel positions : Front: L C R, Side: L R, LFE
Sampling rate : 48.0 KHz
Bit depth : 16 bits
Stream size : 338 MiB (24%)
Alignment : Split accross interleaves
Interleave, duration : 42 ms (1.00 video frame)
Interleave, preload duration : 500 ms

Скриншот c названием фильма

Скриншоты

Скачать

Скачать торрент! Кулак легенды: Возвращение Чен Жена / Legend of the Fist: The Return of Chen Zhen / Jing mo fung wan: Chen Zhen (Вэй Кеунг Лау / Wai-keung Lau) [2010, Гонконг, Китай, боевик, драма, история, HDRip] DVO (BBC Saint-Petersburg)

Как скачивать? · Что такое торрент? · Рейтинг и ограничения

Сайт не распространяет и не хранит электронные версии произведений, а лишь предоставляет доступ к создаваемому пользователями каталогу ссылок на торрент-файлы, которые содержат только списки хеш-сумм

[Профиль] [ЛС]
Показать сообщения:    
Ответить на тему

Текущее время: Сегодня 23:04

Часовой пояс: GMT + 4



Вы не можете начинать темы
Вы не можете отвечать на сообщения
Вы не можете редактировать свои сообщения
Вы не можете удалять свои сообщения
Вы не можете голосовать в опросах
Вы не можете прикреплять файлы к сообщениям
Вы не можете скачивать файлы