Летающий меч Ли / Flying Sword Lee (Пао Хсу Ли / Pao Hsueh Lieh) [1979, Тайвань, боевые искусства, VHSRip] VO (Виктор Береговых)

Ответить на тему
 
Автор Сообщение

user ®

Стаж: 13 лет

Сообщений: 15071

Пост Пост: #1 от 20-Авг-2015 01:54

[Цитировать]

Летающий меч Ли / Flying Sword Lee
Страна: Тайвань
Жанр: боевые искусства
Год выпуска: 1979
Продолжительность: 01:26:36
Перевод: Одноголосый закадровый (Виктор Береговых)
Cубтитры: нет
Режиссер: Пао Хсу Ли / Pao Hsueh Lieh
В ролях: Лин Юнь, Дэнни Ли, Као Юань, Дэнни Чоу, Ева Лин, Чинь Фэн, Хо Гун, Фань Мэй Шен, Ли Хо
Описание: Глава золотого клана золотой мастер желает подчинить себе все кланы.Мешает ему в этом только один человек - летающий кинжал Сяо Ли.Сяо Ли покинул боевой мир, но негодяи убили его любимую и летающий кинжал вернулся, а тут как раз заговор золотого мастера.И теперь Сяо Ли намерен выяснить всю правду...(В.Береговых)
Сэмпл: https://www.sendspace.com/file/vo9bm5
Качество видео: VHSRip
Формат видео: AVI
Видео: XviD, 640x480 (4:3), 29.970 fps, 1008 kbps avg, 0.101 bit/pixel
Аудио: AC3, 48.0 KHz, 192 Kbps, 2 channels
MediaInfo
Format : AVI
Format/Info : Audio Video Interleave
File size : 700 MiB
Duration : 1h 26mn
Overall bit rate : 1 130 Kbps
Writing application : VirtualDubMod 1.5.4.1 (build 2178/release)
Writing library : VirtualDubMod build 2178/release
Video
ID : 0
Format : MPEG-4 Visual
Format profile : AdvancedSimple@L5
Format settings, BVOP : Yes
Format settings, QPel : No
Format settings, GMC : No warppoints
Format settings, Matrix : Custom
Codec ID : XVID
Codec ID/Hint : XviD
Duration : 1h 26mn
Bit rate : 930 Kbps
Width : 640 pixels
Height : 480 pixels
Display aspect ratio : 4:3
Frame rate : 29.970 fps
Resolution : 24 bits
Colorimetry : 4:2:0
Scan type : Progressive
Bits/(Pixel*Frame) : 0.101
Stream size : 576 MiB (82%)
Writing library : XviD 1.2.0.dev47 (UTC 2006-11-01)
Audio
ID : 1
Format : AC-3
Format/Info : Audio Coding 3
Codec ID : 2000
Duration : 1h 26mn
Bit rate mode : Constant
Bit rate : 192 Kbps
Channel(s) : 2 channels
Channel positions : L R
Sampling rate : 48.0 KHz
Stream size : 119 MiB (17%)
Alignment : Split accross interleaves
Interleave, duration : 96 ms (2.88 video frames)
Interleave, preload duration : 96 ms
Language : Russian
Скриншот c названием фильма
Скриншоты
Скачать

Скачать торрент! Летающий меч Ли / Flying Sword Lee (Пао Хсу Ли / Pao Hsueh Lieh) [1979, Тайвань, боевые искусства, VHSRip] VO (Виктор Береговых)

Как скачивать? · Что такое торрент? · Рейтинг и ограничения

Сайт не распространяет и не хранит электронные версии произведений, а лишь предоставляет доступ к создаваемому пользователями каталогу ссылок на торрент-файлы, которые содержат только списки хеш-сумм

[Профиль] [ЛС]
Показать сообщения:    
Ответить на тему

Текущее время: Сегодня 21:13

Часовой пояс: GMT + 4



Вы не можете начинать темы
Вы не можете отвечать на сообщения
Вы не можете редактировать свои сообщения
Вы не можете удалять свои сообщения
Вы не можете голосовать в опросах
Вы не можете прикреплять файлы к сообщениям
Вы не можете скачивать файлы