Когда тебе 36 / 36 Vayadhinile (Рошан Эндрюс / Rosshan Andrrews) [2015, Индия, Семейная мелодрама, DVDRip-AVC] + Sub Rus

Ответить на тему
 
Автор Сообщение

user ®

Стаж: 12 лет

Сообщений: 15092

Пост Пост: #1 от 19-Авг-2015 04:15

[Цитировать]

Когда тебе 36 / 36 Vayadhinile Страна: Индия
Жанр: Семейная мелодрама
Год выпуска: 2015
Продолжительность: 01:50:19
Перевод: Субтитры
Cубтитры: русские
Оригинальная аудиодорожка: Тамильский
Режиссер: Рошан Эндрюс / Rosshan Andrrews
В ролях: Джотика, Рахман, Абхирам, Амрита Анил, Нассер, Делхи Ганеш
Описание: Это история о самой обычной женщине, типичной домохозяйке, которая делает все на благо своей семьи. Но вместо того, чтобы ценить ее заботу о них, домочадцы высмеивают Васанти, считая ограниченной, недостаточно грамотной и просвещенной, скучной и неинтересной, к тому же, тормозящей их -таких продвинутых и умных. Получив изрядную порцию унизительных и обидных слов, а также событий, Васанти неожиданно решается на совершенно новое для себя занятие, которое в итоге позволит ей заново открыть свое собственное "я", а также вернуть себе уважение не только близких, но и всех окружающих.
Релиз-группа: Deewana
Перевод: Ларри

Качество видео: DVDRip-AVC
Формат видео: MKV
Видео: H.264, 1152x648 pixel, 25 fps, 1800 kbps
Аудио: AC3, 44.1 kHz, 2 channels, 192 kbps
Формат субтитров: hardsub (неотключаемые)
MediaInfo
C:\Users\алла\Videos\бимуви\Kogda.tebe.36.2015.DvDRip.Deewana.mkv
General
Unique ID : 198256239680271720574320459607396714697 (0x9526C34B32C3088D9046A30B8AF608C9)
Complete name : C:\Users\алла\Videos\бимуви\Kogda.tebe.36.2015.DvDRip.Deewana.mkv
Format : Matroska
Format version : Version 2
File size : 1.54 GiB
Duration : 1h 50mn
Overall bit rate : 1 993 Kbps
Encoded date : UTC 2015-08-14 22:46:09
Writing application : mkvmerge v6.1.0 ('Old Devil') built on Mar 4 2013 09:10:42
Writing library : libebml v1.3.0 + libmatroska v1.4.0
Video #1
ID : 1
Format : AVC
Format/Info : Advanced Video Codec
Format profile : High@L3.1
Format settings, CABAC : Yes
Format settings, ReFrames : 4 frames
Codec ID : V_MPEG4/ISO/AVC
Duration : 1h 50mn
Bit rate : 1 800 Kbps
Width : 1 152 pixels
Height : 648 pixels
Display aspect ratio : 16:9
Frame rate : 25.000 fps
Color space : YUV
Chroma subsampling : 4:2:0
Bit depth : 8 bits
Scan type : Progressive
Bits/(Pixel*Frame) : 0.096
Stream size : 1.36 GiB (88%)
Writing library : x264 core 130 r2273 b3065e6
Encoding settings : cabac=1 / ref=2 / deblock=1:-2:-1 / analyse=0x3:0x113 / me=hex / subme=4 / psy=1 / psy_rd=1.00:0.20 / mixed_ref=0 / me_range=16 / chroma_me=1 / trellis=1 / 8x8dct=1 / cqm=0 / deadzone=21,11 / fast_pskip=1 / chroma_qp_offset=-1 / threads=3 / lookahead_threads=1 / sliced_threads=0 / nr=0 / decimate=1 / interlaced=0 / bluray_compat=0 / constrained_intra=0 / bframes=3 / b_pyramid=2 / b_adapt=1 / b_bias=0 / direct=3 / weightb=1 / open_gop=0 / weightp=1 / keyint=250 / keyint_min=25 / scenecut=40 / intra_refresh=0 / rc_lookahead=20 / rc=2pass / mbtree=1 / bitrate=1800 / ratetol=1.0 / qcomp=0.60 / qpmin=0 / qpmax=69 / qpstep=4 / cplxblur=20.0 / qblur=0.5 / ip_ratio=1.40 / aq=1:1.00
Audio #2
ID : 2
Format : AC-3
Format/Info : Audio Coding 3
Mode extension : CM (complete main)
Codec ID : A_AC3
Duration : 1h 50mn
Bit rate mode : Constant
Bit rate : 192 Kbps
Channel(s) : 2 channels
Channel positions : Front: L R
Sampling rate : 44.1 KHz
Bit depth : 16 bits
Compression mode : Lossy
Stream size : 152 MiB (10%)
Скриншот c названием фильма Скриншоты
Скачать

Скачать торрент! Когда тебе 36 / 36 Vayadhinile (Рошан Эндрюс / Rosshan Andrrews) [2015, Индия, Семейная мелодрама, DVDRip-AVC] + Sub Rus

Как скачивать? · Что такое торрент? · Рейтинг и ограничения

Сайт не распространяет и не хранит электронные версии произведений, а лишь предоставляет доступ к создаваемому пользователями каталогу ссылок на торрент-файлы, которые содержат только списки хеш-сумм

[Профиль] [ЛС]
Показать сообщения:    
Ответить на тему

Текущее время: Сегодня 05:28

Часовой пояс: GMT + 4



Вы не можете начинать темы
Вы не можете отвечать на сообщения
Вы не можете редактировать свои сообщения
Вы не можете удалять свои сообщения
Вы не можете голосовать в опросах
Вы не можете прикреплять файлы к сообщениям
Вы не можете скачивать файлы