Один день в месяце ашадх / Aashad Ka Ek Din (Мани Кауль / Mani Kaul) [1971, Индия, Историко-биографический, драма, DVDRip] VO (Юлия Семыкина)

Ответить на тему
 
Автор Сообщение

user ®

Стаж: 12 лет

Сообщений: 15092

Пост Пост: #1 от 14-Авг-2015 00:30

[Цитировать]

Один день в месяце ашадх / Aashad Ka Ek Din--
Страна: Индия
Жанр: Историко-биографический, драма
Год выпуска: 1971
Продолжительность: 01:54:10
Перевод: Oдноголосый закадровый
Перевод субтитров: Марина Комарова
Озвучка: Юлия Семыкина
Cубтитры: нет
Оригинальная аудиодорожка: нет--Режиссер: Мани Кауль / Mani Kaul--В ролях: Рекха Сабнис (Маллика), Арун Кхопкар (Калидаса), Ом Шивпури (Вилом), Пинчу Капур, Анурадха Капур--Описание: Действие фильма происходит в маленькой хижине, на горном склоне Гималаев и концентрируется на трех персонажах: поэте Калидаса, его возлюбленной Маллике и их общем друге детства Виломе. Живя в родной деревне, в окружении гор и живописной природы, Калидаса пишет первый сборник стихов "Ритусамхара" (Гирлянда из сезонов), которые быстро становится популярным. Стихи читают при дворе Удджайни, и сам император восхищается талантом поэта. Он посылает великого мудреца Варучи за Калидасой, чтобы воздать ему почести и предложить должность придворного поэта. Но, Калидаса не может покинуть родной дом. Он пытается, но не может решить дилемму в своей душе. С одной стороны, ему придется покинуть зеленую долину и возлюбленную Маллику, а с другой – его ждет слава и богатство. Ради успеха и славы своего возлюбленного, Маллика жертвует своей любовью и сама того не подозревая, становится музой поэта на долгие годы.--Доп. информация: Фильм основан на пьесе Мохана Ракеша "Ашад Ка Эк Дин" и описывает жизнь и творчество легендарного санскритского поэта и драматурга Калидаса, жившего во времена царствования Чандрагупты II Викрамадитьи из династии Гуптов.
Ом Шивпури сыграл в этом фильме свою дебютную роль.
Фильм Aashad Ka Ek Din (1971) получил приз Filmfare Critics Award как лучший фильм года.--Релиз-группа:
Большое спасибо larisa_k, за предоставленные материалы
Сведение звука: pca1962--Сэмпл: http://multi-up.com/1062420
Качество видео: DVDRip
Формат видео: AVI
Видео: XviD, 624x464, 29.00 fps, 1607 kbps
Аудио: AC3, 48 kHz, 2.0 (stereo), 192 kbps (русский)-
-
MediaInfo
General
Complete name :Odin.den.v.mesyatse.ashadx.1971.DVDRip.BwTorrents.avi
Format : AVI
Format/Info : Audio Video Interleave
File size : 1.44 GiB
Duration : 1h 54mn
Overall bit rate : 1 811 Kbps
Movie name : Odin.den.v.mesyatse.ashadx.1971
Director : mixing audio rus - pca1962
Genre : Drama
Writing application : VirtualDubMod 1.5.10.2 (build 2540/release)
Original source form/Name : Movie
Video
ID : 0
Format : MPEG-4 Visual
Format profile : Advanced Simple@L5
Format settings, BVOP : 2
Format settings, QPel : No
Format settings, GMC : No warppoints
Format settings, Matrix : Default (MPEG)
Codec ID : XVID
Codec ID/Hint : XviD
Duration : 1h 54mn
Bit rate : 1 607 Kbps
Width : 624 pixels
Height : 464 pixels
Display aspect ratio : 4:3
Frame rate : 29.970 fps
Color space : YUV
Chroma subsampling : 4:2:0
Bit depth : 8 bits
Scan type : Progressive
Compression mode : Lossy
Bits/(Pixel*Frame) : 0.185
Stream size : 1.28 GiB (89%)
Writing library : XviD 1.2.1 (UTC 2008-12-04)
Audio
ID : 1
Format : AC-3
Format/Info : Audio Coding 3
Mode extension : CM (complete main)
Format settings, Endianness : Big
Codec ID : 2000
Duration : 1h 54mn
Bit rate mode : Constant
Bit rate : 192 Kbps
Channel count : 2 channels
Channel positions : Front: L R
Sampling rate : 48.0 KHz
Bit depth : 16 bits
Compression mode : Lossy
Stream size : 157 MiB (11%)
Alignment : Split accross interleaves
Interleave, duration : 33 ms (1.00 video frame)
Interleave, preload duration : 500 ms

-
-Скриншот c названием фильма Скриншоты
Скачать

Скачать торрент! Один день в месяце ашадх / Aashad Ka Ek Din (Мани Кауль / Mani Kaul) [1971, Индия, Историко-биографический, драма, DVDRip] VO (Юлия Семыкина)

Как скачивать? · Что такое торрент? · Рейтинг и ограничения

Сайт не распространяет и не хранит электронные версии произведений, а лишь предоставляет доступ к создаваемому пользователями каталогу ссылок на торрент-файлы, которые содержат только списки хеш-сумм

[Профиль] [ЛС]
Показать сообщения:    
Ответить на тему

Текущее время: Сегодня 02:44

Часовой пояс: GMT + 4



Вы не можете начинать темы
Вы не можете отвечать на сообщения
Вы не можете редактировать свои сообщения
Вы не можете удалять свои сообщения
Вы не можете голосовать в опросах
Вы не можете прикреплять файлы к сообщениям
Вы не можете скачивать файлы