История наёмников / The Story of Freemen / Lei yan sha xing zhi ba bai long bing tuan (Ба-Ханг Лам / Ba-Hang Lam) [2001, Китай (Гонконг), Боевик, VHSRip] VO (Виктор Береговых) + Sub Eng

Ответить на тему
 
Автор Сообщение

user ®

Стаж: 13 лет

Сообщений: 15071

Пост Пост: #1 от 01-Авг-2015 02:30

[Цитировать]

История наёмников / The Story of Freemen / Lei yan sha xing zhi ba bai long bing tuan
Страна: Китай (Гонконг)
Жанр: Боевик
Год выпуска: 2001
Продолжительность: 01:25:51
Перевод: Одноголосый закадровый Виктор Береговых
Cубтитры: английские, китайские
Оригинальная аудиодорожка: нет
Режиссер: Ба-Ханг Лам / Ba-Hang Lam
В ролях: Луис Фан, Тае, Филлип Ко, Джои Мань, Кэндис Чан, Це Хун Бо
Описание: Мечта - хладнокровная наёмная убийца и дочь главы банды Дракона. Однажды, Мечта убивает главу другой банды и её случайно фотографируют. Вместо того, чтобы убить свидетеля, Мечта влюбляется в фотографа. Но, другие члены банды Дракона не намерены оставлять его в живых..
Сэмпл: http://multi-up.com/1060785
Качество видео: VHSRip
Формат видео: AVI
Видео: 544x400 (1.36:1), 25 fps, XviD build 64 ~1069 kbps avg, 0.20 bit/pixel
Аудио: 48 kHz, MPEG Layer 3, 2 ch, ~128.00 kbps avg
Формат субтитров: hardsub (неотключаемые)
MediaInfo
Format : AVI
Format/Info : Audio Video Interleave
File size : 741 MiB
Duration : 1h 25mn
Overall bit rate : 1 207 Kbps
Writing application : VirtualDubModRus 1.5.10.2 (build 2542/release)
Writing library : VirtualDubMod build 2542/release
Video
ID : 0
Format : xvid
Codec ID : xvid
Duration : 1h 25mn
Bit rate : 1 070 Kbps
Width : 544 pixels
Height : 400 pixels
Display aspect ratio : 4:3
Frame rate : 25.000 fps
Bits/(Pixel*Frame) : 0.197
Stream size : 657 MiB (89%)
Audio
ID : 1
Format : MPEG Audio
Format version : Version 1
Format profile : Layer 3
Mode : Joint stereo
Mode extension : MS Stereo
Codec ID : 55
Codec ID/Hint : MP3
Duration : 1h 25mn
Bit rate mode : Constant
Bit rate : 128 Kbps
Channel count : 2 channels
Sampling rate : 48.0 KHz
Compression mode : Lossy
Stream size : 78.6 MiB (11%)
Alignment : Split accross interleaves
Interleave, duration : 40 ms (1.00 video frame)
Interleave, preload duration : 500 ms
Скриншот c названием фильма Скриншоты
Скачать

Скачать торрент! История наёмников / The Story of Freemen / Lei yan sha xing zhi ba bai long bing tuan (Ба-Ханг Лам / Ba-Hang Lam) [2001, Китай (Гонконг), Боевик, VHSRip] VO (Виктор Береговых) + Sub Eng

Как скачивать? · Что такое торрент? · Рейтинг и ограничения

Сайт не распространяет и не хранит электронные версии произведений, а лишь предоставляет доступ к создаваемому пользователями каталогу ссылок на торрент-файлы, которые содержат только списки хеш-сумм

[Профиль] [ЛС]
Показать сообщения:    
Ответить на тему

Текущее время: Сегодня 17:42

Часовой пояс: GMT + 4



Вы не можете начинать темы
Вы не можете отвечать на сообщения
Вы не можете редактировать свои сообщения
Вы не можете удалять свои сообщения
Вы не можете голосовать в опросах
Вы не можете прикреплять файлы к сообщениям
Вы не можете скачивать файлы