"Асахи" из Ванкувера / Восходящее солнце Ванкувера / Солнце, восходящее над Ванкувером / Vancouver no Asahi (Ишии Юя / Ishii Yuya) [2014, Япония, драма, спорт, исторический, DVDRip] Sub Rus

Ответить на тему
 
Автор Сообщение

user ®

Стаж: 13 лет

Сообщений: 15071

Пост Пост: #1 от 27-Июл-2015 23:24

[Цитировать]

"Асахи" из Ванкувера / Восходящее солнце Ванкувера / Vancouver no Asahi
Страна: Япония
Жанр: драма, спорт, исторический
Год выпуска: 2014
Продолжительность: 02.12.55
Перевод: русские субтитры
Оригинальная аудиодорожка: японский
Режиссер: Ишии Юя / Ishii Yuya
В ролях: Satoshi Tsumabuki
Kazuya Kamenashi
Ryo Katsuji
Yusuke Kamiji
Sosuke Ikematsu
Mitsuki Takahata
Aoi Miyazaki
Shihori Kanjiya
Yusuke Santamaria
Manami Honjou
Ken Mitsuishi
Ren Osugi
Tomorowo Taguchi
Yu Tokui
Akira Otaka
Ryo Iwamatsu
Shingo Tsurumi
Eri Ishida
Koichi Sato
Описание: "Асахи" - реально существовавшая бейсбольная команда, собранная в Ванкувере в 1914 году из детей эмигрантов, приехавших в Канаду на заработки. Эта команда была создана для того, чтобы приносить хоть небольшую радость детям, но внезапно она начала играть в Канадской Лиге. Из-за сильных различий японцев и канадцев в комплекции и силе, на протяжении многих лет "Асахи" постоянно проигрывали белым, но начиная с 1937-го года ситуация резко изменилась. Однако светлые мечты парней о будущем и профессиональном бейсболе вдребезги разбивает начавшаяся в 1941 году война...
"Восходящее солнце Ванкувера" - это фильм о том, насколько тяжела жизнь эмигрантов в стране, где тебя всегда будут считать чужим. Но даже работая за копейки и терпя постоянное унижение, эти ребята не сдались, занимаясь любимым делом и постепенно объединяя людей, стирая эту грань между "япошками" и "белыми" и создавая крепкие узы дружбы, которые существуют и сейчас.
Доп. информация:
Перевод с японского: Giledelear
Создание и оформление субтитров: Yuli4ka_Daisuke
Сэмпл: https://yadi.sk/i/pnryleQYi7h3p
Качество видео: DVDRip
Формат видео: MP4
Видео: AVC, 1 506 Kbps, 1280х536, 2.40:1, 23.976 fps
Аудио: AAC, 426 Kbps, 6 channels, 48.0 KHz
Формат субтитров: softsub (SSA/ASS)
MediaInfo
General
Complete name : G:\Юля\СУБТИТРЫ\ДОРАМЫ и ФИЛЬМЫ\ЗАВЕРШЁННЫЕ ПРОЕКТЫ\Vancouver no Asahi\Vancouver no Asahi.mp4
Format : MPEG-4
Format profile : Base Media
Codec ID : isom
File size : 1.80 GiB
Duration : 2h 12mn
Overall bit rate mode : Variable
Overall bit rate : 1 938 Kbps
Writing application : XviD4PSP 6.0 / 53.6.0
Video
ID : 1
Format : AVC
Format/Info : Advanced Video Codec
Format profile : High@L4.1
Format settings, CABAC : Yes
Format settings, ReFrames : 3 frames
Codec ID : avc1
Codec ID/Info : Advanced Video Coding
Duration : 2h 12mn
Bit rate : 1 506 Kbps
Width : 1 280 pixels
Height : 536 pixels
Display aspect ratio : 2.40:1
Frame rate mode : Constant
Frame rate : 23.976 fps
Color space : YUV
Chroma subsampling : 4:2:0
Bit depth : 8 bits
Scan type : Progressive
Bits/(Pixel*Frame) : 0.092
Stream size : 1.40 GiB (78%)
Writing library : x264 core 116 r2019M 9cc407d
Encoding settings : cabac=1 / ref=3 / deblock=1:0:0 / analyse=0x3:0x133 / me=hex / subme=7 / psy=1 / psy_rd=1.00:0.20 / mixed_ref=1 / me_range=16 / chroma_me=1 / trellis=1 / 8x8dct=1 / cqm=0 / deadzone=21,11 / fast_pskip=1 / chroma_qp_offset=-3 / threads=8 / sliced_threads=0 / nr=0 / decimate=1 / interlaced=0 / bluray_compat=0 / constrained_intra=0 / bframes=3 / b_pyramid=1 / b_adapt=2 / b_bias=0 / direct=3 / weightb=1 / open_gop=0 / weightp=2 / keyint=230 / keyint_min=23 / scenecut=40 / intra_refresh=0 / rc_lookahead=40 / rc=crf / mbtree=1 / crf=21.0 / qcomp=0.60 / qpmin=10 / qpmax=51 / qpstep=4 / vbv_maxrate=31250 / vbv_bufsize=31250 / crf_max=30.0 / nal_hrd=none / ip_ratio=1.40 / aq=1:1.00
Language : Japanese
Audio
ID : 2
Format : AAC
Format/Info : Advanced Audio Codec
Format profile : LC
Codec ID : 40
Duration : 2h 12mn
Bit rate mode : Variable
Bit rate : 426 Kbps
Maximum bit rate : 448 Kbps
Channel(s) : 6 channels
Channel positions : Front: L C R, Side: L R, LFE
Sampling rate : 48.0 KHz
Compression mode : Lossy
Stream size : 405 MiB (22%)
Language : Japanese
Пример субтитров
Dialogue: 0,0:00:40.67,0:00:43.37,мысли,,0,0,0,,Точно так же, как и мои родители,
Dialogue: 0,0:00:43.37,0:00:45.87,мысли,,0,0,0,,когда-то многие японцы
Dialogue: 0,0:00:45.87,0:00:49.87,мысли,,0,0,0,,приехали сюда, в Канаду, Ванкувер.
Dialogue: 0,0:00:53.02,0:00:59.02,мысли,,0,0,0,,Если проработать три года там, за морем, то сможешь привольно жить в Японии всю оставшуюся жизнь.
Dialogue: 0,0:01:00.22,0:01:06.19,мысли,,0,0,0,,Приняв за правду эти рассказы о процветании, они оставили родину.
Dialogue: 0,0:01:59.41,0:02:01.07,англ,,0,0,0,,Проходим, не задерживаемся.
Dialogue: 0,0:02:02.57,0:02:05.95,мысли,,0,0,0,,Японцы хорошо работали.
Dialogue: 0,0:02:10.95,0:02:14.15,мысли,,0,0,0,,Каждый день больше 10 часов тяжёлого физического труда
Dialogue: 0,0:02:14.15,0:02:17.25,мысли,,0,0,0,,за зарплату в половину того, что получали канадцы.
Dialogue: 0,0:02:18.11,0:02:21.00,мысли,,0,0,0,,Японцы работали вне зависимости от того, как с ними обращались,
Dialogue: 0,0:02:21.00,0:02:25.53,мысли,,0,0,0,,и для канадцев были лишь врагами, крадущими работу.
Dialogue: 0,0:02:27.14,0:02:32.48,Default,,0,0,0,,{\fad(700,700)\pos(631.111,183.133)}Канада для белых
Dialogue: 0,0:02:28.14,0:02:30.38,мысли,,0,0,0,,Но даже сталкиваясь с дискриминацией и притеснениями,
Dialogue: 0,0:02:30.38,0:02:33.26,мысли,,0,0,0,,японцы работали.
Dialogue: 0,0:02:35.00,0:02:38.79,мысли,,0,0,0,,Через некоторое время для детей, рождённых в Канаде,
Dialogue: 0,0:02:38.79,0:02:42.69,мысли,,0,0,0,,была сформирована бейсбольная команда.
Dialogue: 0,0:02:42.69,0:02:47.53,мысли,,0,0,0,,Эта команда была создана для того, чтобы приносить всего лишь небольшую радость,
Dialogue: 0,0:02:48.21,0:02:52.39,мысли,,0,0,0,,но внезапно она начала играть в Канадской Лиге.
Скриншот c названием фильма Скриншоты
Скачать

Скачать торрент! "Асахи" из Ванкувера / Восходящее солнце Ванкувера / Солнце, восходящее над Ванкувером / Vancouver no Asahi (Ишии Юя / Ishii Yuya) [2014, Япония, драма, спорт, исторический, DVDRip] Sub Rus

Как скачивать? · Что такое торрент? · Рейтинг и ограничения

Сайт не распространяет и не хранит электронные версии произведений, а лишь предоставляет доступ к создаваемому пользователями каталогу ссылок на торрент-файлы, которые содержат только списки хеш-сумм

[Профиль] [ЛС]
Показать сообщения:    
Ответить на тему

Текущее время: Сегодня 21:37

Часовой пояс: GMT + 4



Вы не можете начинать темы
Вы не можете отвечать на сообщения
Вы не можете редактировать свои сообщения
Вы не можете удалять свои сообщения
Вы не можете голосовать в опросах
Вы не можете прикреплять файлы к сообщениям
Вы не можете скачивать файлы