Море и яд / The Sea and Poison / Umi to dokuyaku (Кэй Кумаи / Kei Kumai) [1986, Япония, драма, DVDRip] Sub Rus Eng

Ответить на тему
 
Автор Сообщение

user ®

Стаж: 13 лет

Сообщений: 15071

Пост Пост: #1 от 27-Июл-2015 17:12

[Цитировать]

Море и яд / The Sea and Poison / Umi to dokuyaku / 海と毒薬
Страна: Япония
Жанр: драма
Год выпуска: 1986
Продолжительность: 02:03:23
Перевод 1: Субтитры русские - [url=http://***/forum/tracker.php?rid=6473541]дед_сто_лет[/url]©
Перевод 2: Субтитры английские - nanogo at kg BANZAI
Оригинальная аудиодорожка: японский
Режиссер: [url=http://***/forum/tracker.php?nm=Kei%20Kumai]Кэй Кумаи / Kei Kumai[/url]
В ролях: Эйдзи ОКУДА, Кэн ВАТАНАБЭ, Кёко КИСИДА, Тосиэ НЭГИСИ, Микио НАРИТА, Кэн НИСИДА, Масуми ОКАДА, Сигэру КОЯМА, Юу КУСАНО, Юми КУРОКИ, Норико СЭНГОКУ, Кадзунага ЦУДЗИ, Масанэ ЦУКАЯМА, Такахиро ТАМУРА
Описание: В последние месяцы войны в клинике Токийского Университета проводятся эксперименты по вивисекции американских военнопленных. Непосредственными участниками этих событий становятся молодые врачи-стажеры Сугуро и Тода. Они по-разному переживают происходящее, но оба чувствуют свою ответственность. Автор фильма Кэй Кумаи опять ищет источники духовного спасения. Он прекрасно понимает, что одного только общественного осуждения недостаточно для того, чтобы исправить души. Сегодня общество осуждает кого-то, а завтра он превращается в героя, и ничего не меняется.©
Другие фильмы про врачей:
[url=http://***/forum/viewtopic.php?t=4891988]Как умирают в больнице / Dying at a Hospital - 1993[/url]
[url=http://***/forum/viewtopic.php?t=3405250]Душевнобольные / Mental / Seishin - 2008[/url]
[url=http://***/forum/viewtopic.php?t=4524992]Последняя воля / The Terminal Trust / Tsui no Shintaku - 2012[/url]
[url=http://***/forum/viewtopic.php?t=4997269]Юные гиппократы / Disciples of Hippocrates - 1980[/url]
[url=http://***/forum/viewtopic.php?t=4795291]Жена Сэйсю Ханаока / The Wife of Seishu Hanaoka - 1967[/url]
> > > > > > >
Качество видео: DVDRip
Формат видео: AVI
Видео: 720x400 (1.80:1), 23.976 fps, XviD build 50 ~1309 kbps avg, 0.19 bit/pixel
Аудио: 48 kHz, AC3 Dolby Digital, 2/0 (L,R) ch, ~384 kbps
Формат субтитров: softsub (SRT)
Доп. информация о субтитрах: дед_сто_лет
Пример субтитров
517
00:39:10,448 --> 00:39:12,325
Что же, тогда делать нечего.
518
00:39:12,817 --> 00:39:15,263
Это и есть профессия врача?
519
00:39:16,821 --> 00:39:18,994
Неужели такова природа медицины?
520
00:39:30,335 --> 00:39:31,336
Однако мои мысли...
521
00:39:31,603 --> 00:39:33,879
... потихоньку менялись.
522
00:39:35,140 --> 00:39:37,950
Я знал, что размышления
ни к чему не приведут
523
00:39:38,510 --> 00:39:41,855
В любой день я мог
быть призван на службу.
524
00:39:42,280 --> 00:39:44,886
Я стал чувствовать, что все не важно.
525
00:39:55,160 --> 00:39:56,230
А потом...
526
00:39:56,594 --> 00:39:59,200
... армия США захватила
острова Окинава.
527
00:40:09,841 --> 00:40:10,683
Бабуля.
528
00:40:10,808 --> 00:40:12,185
Как ваши дела?
529
00:40:13,344 --> 00:40:14,880
Лежите-лежите.
530
00:40:26,124 --> 00:40:27,034
Вот возьмите.
531
00:40:28,593 --> 00:40:30,231
Медицинская глюкоза.
532
00:41:02,894 --> 00:41:04,134
Вкусно?
533
00:41:06,431 --> 00:41:07,705
Вкусно.
534
00:41:11,402 --> 00:41:16,048
Пятьдесят шесть миллиардов...
535
00:41:16,140 --> 00:41:20,650
... семь тысяч раз по 10 тысяч лет...
536
00:41:21,479 --> 00:41:30,697
... таков возраст бодхисатвы Мироку.
537
00:41:30,822 --> 00:41:32,096
Это буддийская сутра?
MediaInfo
General
Complete name : C:\Torrents\[ASIA]\Umi.to.dokuyaku(1986)Kei.Kumai\Umi.to.dokuyaku(1986)Kei.Kumai.avi
Format : AVI
Format/Info : Audio Video Interleave
File size : 1.47 GiB
Duration : 2h 3mn
Overall bit rate : 1 700 Kbps
Writing application : VirtualDubMod 1.5.4.1 (build 2178/release)
Writing library : VirtualDubMod build 2178/release
Video
ID : 0
Format : MPEG-4 Visual
Format profile : Advanced Simple@L5
Format settings, BVOP : 1
Format settings, QPel : No
Format settings, GMC : No warppoints
Format settings, Matrix : Custom
Codec ID : XVID
Codec ID/Hint : XviD
Duration : 2h 3mn
Bit rate : 1 310 Kbps
Width : 720 pixels
Height : 400 pixels
Display aspect ratio : 16:9
Frame rate : 23.976 fps
Color space : YUV
Chroma subsampling : 4:2:0
Bit depth : 8 bits
Scan type : Progressive
Compression mode : Lossy
Bits/(Pixel*Frame) : 0.190
Stream size : 1.13 GiB (77%)
Writing library : XviD 1.2.1 (UTC 2008-12-04)
Audio
ID : 1
Format : AC-3
Format/Info : Audio Coding 3
Mode extension : CM (complete main)
Codec ID : 2000
Duration : 2h 3mn
Bit rate mode : Constant
Bit rate : 384 Kbps
Channel(s) : 2 channels
Channel positions : Front: L R
Sampling rate : 48.0 KHz
Bit depth : 16 bits
Compression mode : Lossy
Stream size : 339 MiB (23%)
Alignment : Split accross interleaves
Interleave, duration : 96 ms (2.30 video frames)
Interleave, preload duration : 96 ms
Language : Japanese
Скриншот c названием фильма Скриншоты
Скачать

Скачать торрент! Море и яд / The Sea and Poison / Umi to dokuyaku (Кэй Кумаи / Kei Kumai) [1986, Япония, драма, DVDRip] Sub Rus Eng

Как скачивать? · Что такое торрент? · Рейтинг и ограничения

Сайт не распространяет и не хранит электронные версии произведений, а лишь предоставляет доступ к создаваемому пользователями каталогу ссылок на торрент-файлы, которые содержат только списки хеш-сумм

[Профиль] [ЛС]
Показать сообщения:    
Ответить на тему

Текущее время: Сегодня 20:25

Часовой пояс: GMT + 4



Вы не можете начинать темы
Вы не можете отвечать на сообщения
Вы не можете редактировать свои сообщения
Вы не можете удалять свои сообщения
Вы не можете голосовать в опросах
Вы не можете прикреплять файлы к сообщениям
Вы не можете скачивать файлы