Однажды в Индии / Angaaray (Махеш Бхатт / Mahesh Bhatt) [1998, Индия, Боевик, драма, криминал, DVDRip] DVO (Арена)

Ответить на тему
 
Автор Сообщение

user ®

Стаж: 13 лет

Сообщений: 15070

Пост Пост: #1 от 26-Июл-2015 19:33

[Цитировать]

Однажды в Индии / Angaaray
Страна: Индия
Жанр: Боевик, драма, криминал
Год выпуска: 1998
Продолжительность: 02:20:32
Перевод: Любительский (двухголосый закадровый) Арена
Cубтитры: нет
Режиссер: Махеш Бхатт / Mahesh Bhatt
В ролях: Акшай Кумар, Нагарджуна Акинени, Пуджа Бхатт, Сонали Бендре, Пареш Раваль, Ирфан Камал, Гульшан Гровер, Мохан Капур, Нареш Сури, Разак Кхан
Описание: Четверо неразлучных друзей живет в бедном квартале Бомбея. После того, как одного из них, Амара, за поножовщину сажают в тюрьму, судьба надолго разлучает подростков, чтобы спустя годы вновь свести их вместе, но уже по разные стороны баррикад.
Доп. информация: Исходник DVD-5 (СПАСИБО! Алёна)
Сэмпл: http://multi-up.com/1060016
Качество видео: DVDRip
Формат видео: AVI
Видео: XviD build 50, 688x368 (1.87:1), 23.976 fps, 1291 kbps avg
Аудио: AC3 Dolby Digital, 48 kHz, 2/0 (L,R) ch, 192 kbps
MediaInfo
General
Complete name : F:\Odnazhdi.v.Indii.1998.XviD.DVDRip-Dego.avi
Format : AVI
Format/Info : Audio Video Interleave
File size : 1.47 GiB
Duration : 2h 20mn
Overall bit rate : 1 493 Kbps
Writing application : VirtualDubMod 1.5.10.2 (build 2540/release)
Writing library : VirtualDubMod build 2540/release
Video
ID : 0
Format : MPEG-4 Visual
Format profile : AdvancedSimple@L5
Format settings, BVOP : Yes
Format settings, QPel : No
Format settings, GMC : No warppoints
Format settings, Matrix : Custom
Codec ID : XVID
Codec ID/Hint : XviD
Duration : 2h 20mn
Bit rate : 1 292 Kbps
Width : 688 pixels
Height : 368 pixels
Display aspect ratio : 1.870
Frame rate : 23.976 fps
Resolution : 24 bits
Colorimetry : 4:2:0
Scan type : Progressive
Bits/(Pixel*Frame) : 0.213
Stream size : 1.27 GiB (87%)
Writing library : XviD 1.2.1 (UTC 2008-12-04)
Audio
ID : 1
Format : AC-3
Format/Info : Audio Coding 3
Codec ID : 2000
Duration : 2h 20mn
Bit rate mode : Constant
Bit rate : 192 Kbps
Channel(s) : 2 channels
Channel positions : L R
Sampling rate : 48.0 KHz
Stream size : 193 MiB (13%)
Alignment : Split accross interleaves
Interleave, duration : 42 ms (1.00 video frame)
Interleave, preload duration : 500 ms
Скриншоты
Скачать

Скачать торрент! Однажды в Индии / Angaaray (Махеш Бхатт / Mahesh Bhatt) [1998, Индия, Боевик, драма, криминал, DVDRip] DVO (Арена)

Как скачивать? · Что такое торрент? · Рейтинг и ограничения

Сайт не распространяет и не хранит электронные версии произведений, а лишь предоставляет доступ к создаваемому пользователями каталогу ссылок на торрент-файлы, которые содержат только списки хеш-сумм

[Профиль] [ЛС]
Показать сообщения:    
Ответить на тему

Текущее время: Сегодня 16:51

Часовой пояс: GMT + 4



Вы не можете начинать темы
Вы не можете отвечать на сообщения
Вы не можете редактировать свои сообщения
Вы не можете удалять свои сообщения
Вы не можете голосовать в опросах
Вы не можете прикреплять файлы к сообщениям
Вы не можете скачивать файлы