Веселая карусель №5: Небылицы в лицах (Геннадий Сокольский) [1973, мультфильм, DVB]

Ответить на тему
 
Автор Сообщение

user ®

Стаж: 7 лет 7 месяцев

Сообщений: 20008

Пост Пост: #1 от 10-Июл-2015 22:36

[Цитировать]

Веселая карусель №5: Небылицы в лицах
Страна: СССР, Союзмультфильм
Жанр: мультфильм
Год выпуска: 1973
Продолжительность: 00:03:06
Режиссёр: Геннадий Сокольский
Описание: мультфильм о том , как один мужик рассказывает всякие забавные небылицы другому мужику ...
Доп. информация:

Релиз группы:
Трансляция спутникового канала:

Качество видео: DVB
Формат видео: MPEG-PS
Видео: MPEG2 Video, 720x576 (4:3), 25 fps, 3000 kbps
Аудио: MPEG Audiо, 2 сh, 48 kHz, 160 kbps
Сравнение
[url=http://***/forum/viewtopic.php?t=1504368]http://***/forum/viewtopic.php?t=1504368[/url]
http://screenshotcomparison.com/comparison/134572
MediaInfo
General
Complete name : D:\Веселая карусель №5. Небылицы в лицах. (1973)_DVB by SLuMeP.mpg
Format : MPEG-PS
File size : 72.7 MiB
Duration : 3mn 6s
Overall bit rate mode : Variable
Overall bit rate : 3 264 Kbps
Video
ID : 224 (0xE0)
Format : MPEG Video
Format version : Version 2
Format profile : Main@Main
Format settings, BVOP : No
Format settings, Matrix : Custom
Format settings, GOP : M=3, N=12
Duration : 3mn 6s
Bit rate mode : Variable
Bit rate : 3 039 Kbps
Maximum bit rate : 15.0 Mbps
Width : 720 pixels
Height : 576 pixels
Display aspect ratio : 4:3
Frame rate : 25.000 fps
Standard : PAL
Color space : YUV
Chroma subsampling : 4:2:0
Bit depth : 8 bits
Scan type : Interlaced
Scan order : Top Field First
Compression mode : Lossy
Bits/(Pixel*Frame) : 0.293
Time code of first frame : 00:00:00:00
Time code source : Group of pictures header
Stream size : 67.7 MiB (93%)
Audio
ID : 192 (0xC0)
Format : MPEG Audio
Format version : Version 1
Format profile : Layer 2
Duration : 3mn 6s
Bit rate mode : Constant
Bit rate : 160 Kbps
Channel(s) : 2 channels
Sampling rate : 48.0 KHz
Compression mode : Lossy
Stream size : 3.56 MiB (5%)
Скриншоты
Скачать

Скачать торрент!

Как скачивать? · Что такое торрент? · Рейтинг и ограничения

Сайт не распространяет и не хранит электронные версии произведений, а лишь предоставляет доступ к создаваемому пользователями каталогу ссылок на торрент-файлы, которые содержат только списки хеш-сумм

[Профиль] [ЛС]
Показать сообщения:    
Ответить на тему

Текущее время: Сегодня 12:10

Часовой пояс: GMT + 4



Вы не можете начинать темы
Вы не можете отвечать на сообщения
Вы не можете редактировать свои сообщения
Вы не можете удалять свои сообщения
Вы не можете голосовать в опросах
Вы не можете прикреплять файлы к сообщениям
Вы не можете скачивать файлы