Отверженный / Tadipaar (Махеш Бхатт / Mahesh Bhatt) [1993, Индия, Боевик, приключения, DVDRip] MVO (Формат АВ) + Original

Ответить на тему
 
Автор Сообщение

user ®

Стаж: 12 лет

Сообщений: 15092

Пост Пост: #1 от 07-Июл-2015 23:21

[Цитировать]

Отверженный / Tadipaar
Страна: Индия
Жанр: Боевик, приключения
Год выпуска: 1993
Продолжительность: 02:14:09
Перевод: Профессиональный (многоголосый закадровый) Формат АВ
Cубтитры: нет
Оригинальная аудиодорожка: хинди
Режиссер: Махеш Бхатт / Mahesh Bhatt
В ролях: Митхун Чакраборти, Пуджа Бхатт, Анупам Кер, Автар Гилл, Гульшан Гровер, Садашив Амрапуркар, Тику Талсания, Джухи Чавла, Макранд Дешпандэ, Викрам Гокхале, Джавед Кхан, Куника, Гэвин Паккард
Описание: Этот фильм — история молодого парня Шанкара, которого все именуют не иначе как «Отверженный». Шанкар мечтает о богатстве и роскошной жизни. И всего то ему не хватает для этого шикарной женщины, которая бы стала его женой. Однажды он знакомится с красивой незнакомкой по имени Намкин, которая как две капли воды похожа на богатую принцессу Махини Деви…
Доп. информация:
Сведение звука: Алёна (Спасибо!)
Сэмпл: http://multi-up.com/1057502
Качество видео: DVDRip
Формат видео: AVI
Видео: XviD build 50, 704x320 (2.20:1), 29.970 fps, 1810 kbps avg
Аудио: Rus AC3 Dolby Digital, 48 kHz, 2/0 (L,R) ch, 192.00 kbps
Аудио 2: Hindi AC3 Dolby Digital, 48 kHz, 3/2 (L,C,R,l,r) + LFE ch, 384 kbps
MediaInfo
General
Complete name : F:\Otverjenniy.1993.DVDRip.avi
Format : AVI
Format/Info : Audio Video Interleave
Format profile : OpenDML
File size : 2.24 GiB
Duration : 2h 14mn
Overall bit rate : 2 395 Kbps
Writing application : VirtualDubMod 1.5.10.2 (build 2540/release)
Writing library : VirtualDubMod build 2540/release
Video
ID : 0
Format : MPEG-4 Visual
Format profile : AdvancedSimple@L5
Format settings, BVOP : Yes
Format settings, QPel : No
Format settings, GMC : No warppoints
Format settings, Matrix : Custom
Codec ID : XVID
Codec ID/Hint : XviD
Duration : 2h 14mn
Bit rate : 1 797 Kbps
Width : 704 pixels
Height : 320 pixels
Display aspect ratio : 2.2
Frame rate : 29.970 fps
Resolution : 24 bits
Colorimetry : 4:2:0
Scan type : Progressive
Bits/(Pixel*Frame) : 0.266
Stream size : 1.68 GiB (75%)
Writing library : XviD 1.1.2 (UTC 2006-11-01)
Audio #1
ID : 1
Format : AC-3
Format/Info : Audio Coding 3
Codec ID : 2000
Duration : 2h 14mn
Bit rate mode : Constant
Bit rate : 192 Kbps
Channel(s) : 2 channels
Channel positions : L R
Sampling rate : 48.0 KHz
Stream size : 184 MiB (8%)
Alignment : Split accross interleaves
Interleave, duration : 33 ms (1.00 video frame)
Interleave, preload duration : 500 ms
Language : Hindi
Audio #2
ID : 2
Format : AC-3
Format/Info : Audio Coding 3
Codec ID : 2000
Duration : 2h 14mn
Bit rate mode : Constant
Bit rate : 384 Kbps
Channel(s) : 6 channels
Channel positions : Front: L C R, Surround: L R, LFE
Sampling rate : 48.0 KHz
Stream size : 368 MiB (16%)
Alignment : Split accross interleaves
Interleave, duration : 33 ms (1.00 video frame)
Interleave, preload duration : 500 ms
Скриншоты
Скачать

Скачать торрент! Отверженный / Tadipaar (Махеш Бхатт / Mahesh Bhatt) [1993, Индия, Боевик, приключения, DVDRip] MVO (Формат АВ) + Original

Как скачивать? · Что такое торрент? · Рейтинг и ограничения

Сайт не распространяет и не хранит электронные версии произведений, а лишь предоставляет доступ к создаваемому пользователями каталогу ссылок на торрент-файлы, которые содержат только списки хеш-сумм

[Профиль] [ЛС]
Показать сообщения:    
Ответить на тему

Текущее время: Сегодня 06:47

Часовой пояс: GMT + 4



Вы не можете начинать темы
Вы не можете отвечать на сообщения
Вы не можете редактировать свои сообщения
Вы не можете удалять свои сообщения
Вы не можете голосовать в опросах
Вы не можете прикреплять файлы к сообщениям
Вы не можете скачивать файлы