Ну что, влюбился? / Kyun! Ho Gaya Na? (Самир Карник / Samir Karnik) [2004, Индия, Драма, мелодрама, комедия, DVDRip] MVO (Формат АВ)

Ответить на тему
 
Автор Сообщение

user ®

Стаж: 12 лет

Сообщений: 15092

Пост Пост: #1 от 07-Июл-2015 17:09

[Цитировать]

Ну что, влюбился? / Kyun! Ho Gaya Na?
Страна: Индия
Жанр: Драма, мелодрама, комедия
Год выпуска: 2004
Продолжительность: 02:52:05
Перевод: Профессиональный (многоголосый закадровый) Формат АВ
Cубтитры: нет
Режиссер: Самир Карник / Samir Karnik
В ролях: Амитабх Баччан, Айшвария Рай, Вивек Оберой, Рати Агнихотри, Тинну Ананд, Ом Пури, Аджит Ахуджа, Гаурав Гера, Риши Кападия, Риши Радж Капур
Описание: Дия Малхотра - сентиментальная идеалистка, воспитанная на кофейной плантации Корг в маленьком городке своим папой Малхотрой. Ее мама и соответственно жена Малхотры скончалась. Лучший друг ее отца - Радж Чаухан. В своем доме он разместил приют для социально неблагополучных людей. Дия увлеклась социальной работой и для сдачи экзаменов она приезжает в Мумбай. При необычных обстоятельствах она знакомится с Арджуном Кханной. Он - свободный, энергичный, независимый, предприимчивый и раскованный парень. Оказывается, что родители Арджуна - друзья отца Дии, и она вынуждены жить под одной крышей с Арджуном. Между двумя противоположностями начинается дружба и... поединок на тему любви и брака.
Доп. информация: Исходник [url=http://***/forum/viewtopic.php?t=1800226]DVD-9[/url] (СПАСИБО! RU_Adriana)
Сэмпл: http://multi-up.com/1057470
Качество видео: DVDRip
Формат видео: AVI
Видео: XviD build 50, 688x304 (2.26:1), 23.976 fps, 1079 kbps avg
Аудио: MPEG Layer 3, 48 kHz, 2/0 (L,R) ch, 128.00 kbps
MediaInfo
General
Complete name : F:\Nu.chto.vlubilsja.2004.XviD.DVDRip-Dego.avi
Format : AVI
Format/Info : Audio Video Interleave
File size : 1.46 GiB
Duration : 2h 52mn
Overall bit rate : 1 217 Kbps
Writing application : VirtualDubMod 1.5.10.2 (build 2540/release)
Writing library : VirtualDubMod build 2540/release
Video
ID : 0
Format : MPEG-4 Visual
Format profile : AdvancedSimple@L5
Format settings, BVOP : Yes
Format settings, QPel : No
Format settings, GMC : No warppoints
Format settings, Matrix : Custom
Codec ID : XVID
Codec ID/Hint : XviD
Duration : 2h 52mn
Bit rate : 1 080 Kbps
Width : 688 pixels
Height : 304 pixels
Display aspect ratio : 2.25
Frame rate : 23.976 fps
Resolution : 24 bits
Colorimetry : 4:2:0
Scan type : Progressive
Bits/(Pixel*Frame) : 0.215
Stream size : 1.30 GiB (89%)
Writing library : XviD 1.2.1 (UTC 2008-12-04)
Audio
ID : 1
Format : MPEG Audio
Format version : Version 1
Format profile : Layer 3
Codec ID : 55
Codec ID/Hint : MP3
Duration : 2h 52mn
Bit rate mode : Constant
Bit rate : 128 Kbps
Channel(s) : 2 channels
Sampling rate : 48.0 KHz
Resolution : 16 bits
Stream size : 158 MiB (11%)
Alignment : Aligned on interleaves
Interleave, duration : 42 ms (1.00 video frame)
Interleave, preload duration : 504 ms
Writing library : LAME3.98r
Encoding settings : -m j -V 4 -q 2 -lowpass 17 -b 128
Скриншоты Сравнения
[url=http://***/forum/viewtopic.php?t=85488]http://***/forum/viewtopic.php?t=85488[/url] => http://screenshotcomparison.com/comparison/134068/picture:0
перевод тотже.
Скачать

Скачать торрент! Ну что, влюбился? / Kyun! Ho Gaya Na? (Самир Карник / Samir Karnik) [2004, Индия, Драма, мелодрама, комедия, DVDRip] MVO (Формат АВ)

Как скачивать? · Что такое торрент? · Рейтинг и ограничения

Сайт не распространяет и не хранит электронные версии произведений, а лишь предоставляет доступ к создаваемому пользователями каталогу ссылок на торрент-файлы, которые содержат только списки хеш-сумм

[Профиль] [ЛС]
Показать сообщения:    
Ответить на тему

Текущее время: Сегодня 16:21

Часовой пояс: GMT + 4



Вы не можете начинать темы
Вы не можете отвечать на сообщения
Вы не можете редактировать свои сообщения
Вы не можете удалять свои сообщения
Вы не можете голосовать в опросах
Вы не можете прикреплять файлы к сообщениям
Вы не можете скачивать файлы