Мумбайский дневник / Дневники Мумбая / Дхоби Гхат / Dhobi Ghat (Киран Рао / Kiran Rao) [2011, Индия, Драма, DVDRip] MVO (SDI Media) + Hindi

Ответить на тему
 
Автор Сообщение

user ®

Стаж: 12 лет

Сообщений: 15092

Пост Пост: #1 от 02-Июл-2015 16:24

[Цитировать]

Мумбайский дневник / Дневники Мумбая / Дхоби Гхат / Dhobi Ghat
-Страна: Индия
Жанр: Драма
Год выпуска: 2011
Продолжительность: 01:42:31-Перевод: Профессиональный многоголосый закадровый - SDI Media
Cубтитры: Нет-Режиссер: Киран Рао / Kiran Rao-В ролях: Аамир Кхан, Пратик Баббар, Моника Догра, Крити Мальхотра, Киту Гидвани, Нафиса Кхан-Описание: Дхоби Гхат - известное место в Мумбаи. Прачки, которых называют дхоби, на открытом воздухе стирают одежду жильцов мумбайских отелей и больниц. Мунна (Пратик Баббар) - один из таких дхоби: он неплохо знает многих своих клиентов, в числе которых и талантливый художник Арун (Амир Кхан). Знакомство Мунны с американкой индийского происхождения Шаи (Моника Догра) тоже начинается со стирки, но перерастает в нечто большее - парень влюбляется. Шаи же тянет к Аруну, с которым она однажды разделила ночь. Арун перебирается на новую квартиру, где обнаруживает оставленные прежними жильцами вещи, в том числе три видеокассеты - по сути, мумбайский дневник незнакомой девушки Ясмин (Крити Мальхотра). Что-то в этих записях задевает душевные струны Аруна, и он снова и снова пересматривает их, а Ясмин овладевает всеми его мыслями. События разворачиваются неспешно, но развязка неотвратима, и в воздухе уже разлит аромат грозы, ведь Мумбаи так легко перемалывает человеческие судьбы…-Качество видео: DVDRip
Формат видео: AVI-Видео: XVID, 720x400, 23,976 fps, 1575 Kbps
Аудио #1: АС3, 48 КHz, 2 сh, 224 Kbps [Russian (SDI Media)]
Аудио #2: АС3, 48 КHz, 2 сh, 224 Kbps [Hindi]
-
Сведение аудио: soso4eg-Сэмпл / Sample- --
Скриншот с названием:
-
Скриншоты:
-
MI
General
Complete name : D:\Dhobi.Ghat.2010.P.DVDRip.XviD-soso4eg.avi
Format : AVI
Format/Info : Audio Video Interleave
File size : 1.37 GiB
Duration : 1h 42mn
Overall bit rate : 1 914 Kbps
Movie name : Mumbaiskiy.Dnevnik.2010.DVDRip.XviD.BwTorrents
Director : -=BwTorrents.Ru =-
Genre : -=BwTorrents.Ru =-
Writing application : VirtualDubMod 1.5.10.2 (build 2540/release)
Writing library : VirtualDubMod build 2540/release
Original source form/Name : -=BwTorrents.Ru =-
Copyright : -=BwTorrents.Ru =-
Comment : -=BwTorrents.Ru =-
Video
ID : 0
Format : MPEG-4 Visual
Format profile : Advanced Simple@L5
Format settings, BVOP : 1
Format settings, QPel : No
Format settings, GMC : No warppoints
Format settings, Matrix : Custom
Codec ID : XVID
Codec ID/Hint : XviD
Duration : 1h 42mn
Bit rate : 1 452 Kbps
Width : 720 pixels
Height : 400 pixels
Display aspect ratio : 16:9
Frame rate : 23.976 fps
Color space : YUV
Chroma subsampling : 4:2:0
Bit depth : 8 bits
Scan type : Progressive
Compression mode : Lossy
Bits/(Pixel*Frame) : 0.210
Stream size : 1.04 GiB (76%)
Writing library : XviD 1.2.1 (UTC 2008-12-04)
Audio #1
ID : 1
Format : AC-3
Format/Info : Audio Coding 3
Mode extension : CM (complete main)
Format settings, Endianness : Big
Codec ID : 2000
Duration : 1h 42mn
Bit rate mode : Constant
Bit rate : 224 Kbps
Channel(s) : 2 channels
Channel positions : Front: L R
Sampling rate : 48.0 KHz
Bit depth : 16 bits
Compression mode : Lossy
Stream size : 164 MiB (12%)
Alignment : Split accross interleaves
Interleave, duration : 42 ms (1.00 video frame)
Interleave, preload duratio : 500 ms
Audio #2
ID : 2
Format : AC-3
Format/Info : Audio Coding 3
Mode extension : CM (complete main)
Format settings, Endianness : Big
Codec ID : 2000
Duration : 1h 42mn
Bit rate mode : Constant
Bit rate : 224 Kbps
Channel(s) : 2 channels
Channel positions : Front: L R
Sampling rate : 48.0 KHz
Bit depth : 16 bits
Compression mode : Lossy
Stream size : 164 MiB (12%)
Alignment : Split accross interleaves
Interleave, duration : 42 ms (1.00 video frame)
Interleave, preload duratio : 500 ms
-
Скачать

Скачать торрент! Мумбайский дневник / Дневники Мумбая / Дхоби Гхат / Dhobi Ghat (Киран Рао / Kiran Rao) [2011, Индия, Драма, DVDRip] MVO (SDI Media) + Hindi

Как скачивать? · Что такое торрент? · Рейтинг и ограничения

Сайт не распространяет и не хранит электронные версии произведений, а лишь предоставляет доступ к создаваемому пользователями каталогу ссылок на торрент-файлы, которые содержат только списки хеш-сумм

[Профиль] [ЛС]
Показать сообщения:    
Ответить на тему

Текущее время: Сегодня 16:21

Часовой пояс: GMT + 4



Вы не можете начинать темы
Вы не можете отвечать на сообщения
Вы не можете редактировать свои сообщения
Вы не можете удалять свои сообщения
Вы не можете голосовать в опросах
Вы не можете прикреплять файлы к сообщениям
Вы не можете скачивать файлы