Брачный марафон / Спутник жизни / Life Partner (Руми Джеффри / Rumi Jaffery) [2009, Индия, Комедия, драма, мелодрама, DVDRip] MVO (Red Media) + Original

Ответить на тему
 
Автор Сообщение

user ®

Стаж: 12 лет

Сообщений: 15092

Пост Пост: #1 от 29-Июн-2015 17:09

[Цитировать]

Брачный марафон / Спутник жизни / Life Partner
Страна: Индия
Жанр: Комедия, драма, мелодрама
Год выпуска: 2009
Продолжительность: 02:15:40
Перевод: Профессиональный (многоголосый закадровый) Red Media
Cубтитры: нет
Режиссер: Руми Джеффри / Rumi Jaffery
В ролях: Говинда, Фардин Кхан, Тусшар Капур, Дженелия Д`Суза, Прачи Десай, Анупам Кхер, Амрита Рао, Шома Ананд, Рана Юнг Бахадур, Шитал Гори, Али Хаджи, Джагдип, Даршан Джаривала, Химани Шивпури
Описание: Фильм «Life Partner» - это романтическая комедия, в которой переплетены различные аспекты брака. За месяц картине удалось войти в пятерку лидеров индийского проката. Дружба, любовь, брак... Слова "Спутник жизни" для каждого человека означают разное. У каждого человека есть в мире своя вторая половинка. Есть они и у трех друзей: Карана (Фардин Хан), Бхавеша (Тусшар Капур) и Джита (Говинда)
Доп. информация: Сведение звука: василисса (Спасибо!)
Сэмпл: http://multi-up.com/1056096
Качество видео: DVDRip
Формат видео: AVI
Видео: XviD build 50, 640x288 (2.22:1), 23.976 fps, 1078 kbps avg
Аудио: Rus AC3 Dolby Digital, 48 kHz, 2/0 (L,R) ch, 192.00 kbps
Аудио 2: Hindi AC3 Dolby Digital, 48 kHz, 2/0 (L,R) ch, 192.00 kbps
MediaInfo
General
Complete name : F:\Brachniy.Marafon.2009.DVDRip.avi
Format : AVI
Format/Info : Audio Video Interleave
File size : 1.40 GiB
Duration : 2h 15mn
Overall bit rate : 1 477 Kbps
Writing application : VirtualDubMod 1.5.10.2 (build 2540/release)
Writing library : VirtualDubMod build 2540/release
Video
ID : 0
Format : MPEG-4 Visual
Format profile : AdvancedSimple@L5
Format settings, BVOP : Yes
Format settings, QPel : No
Format settings, GMC : No warppoints
Format settings, Matrix : Default (MPEG)
Codec ID : XVID
Codec ID/Hint : XviD
Duration : 2h 15mn
Bit rate : 1 080 Kbps
Width : 640 pixels
Height : 288 pixels
Display aspect ratio : 2.222
Frame rate : 23.976 fps
Resolution : 24 bits
Colorimetry : 4:2:0
Scan type : Progressive
Bits/(Pixel*Frame) : 0.244
Stream size : 1.02 GiB (73%)
Writing library : XviD 1.2.1 (UTC 2008-12-04)
Audio #1
ID : 1
Format : AC-3
Format/Info : Audio Coding 3
Codec ID : 2000
Duration : 2h 15mn
Bit rate mode : Constant
Bit rate : 192 Kbps
Channel(s) : 2 channels
Channel positions : L R
Sampling rate : 48.0 KHz
Stream size : 186 MiB (13%)
Alignment : Split accross interleaves
Interleave, duration : 42 ms (1.00 video frame)
Interleave, preload duration : 500 ms
Audio #2
ID : 2
Format : AC-3
Format/Info : Audio Coding 3
Codec ID : 2000
Duration : 2h 15mn
Bit rate mode : Constant
Bit rate : 192 Kbps
Channel(s) : 2 channels
Channel positions : L R
Sampling rate : 48.0 KHz
Stream size : 186 MiB (13%)
Alignment : Split accross interleaves
Interleave, duration : 42 ms (1.00 video frame)
Interleave, preload duration : 500 ms
Скриншоты
Скачать

Скачать торрент! Брачный марафон / Спутник жизни / Life Partner (Руми Джеффри / Rumi Jaffery) [2009, Индия, Комедия, драма, мелодрама, DVDRip] MVO (Red Media) + Original

Как скачивать? · Что такое торрент? · Рейтинг и ограничения

Сайт не распространяет и не хранит электронные версии произведений, а лишь предоставляет доступ к создаваемому пользователями каталогу ссылок на торрент-файлы, которые содержат только списки хеш-сумм

[Профиль] [ЛС]
Показать сообщения:    
Ответить на тему

Текущее время: Сегодня 07:01

Часовой пояс: GMT + 4



Вы не можете начинать темы
Вы не можете отвечать на сообщения
Вы не можете редактировать свои сообщения
Вы не можете удалять свои сообщения
Вы не можете голосовать в опросах
Вы не можете прикреплять файлы к сообщениям
Вы не можете скачивать файлы