Тинтин: Храм Солнца / Tintin et le temple du soleil / Seven Crystal Balls and the Prisoners of the Sun (Эдди Латесте / Eddie Lateste) [1969, мультфильм, детектив, приключения, семейный, SATRip] DUB

Ответить на тему
 
Автор Сообщение

user ®

Стаж: 13 лет

Сообщений: 15041

Пост Пост: #1 от 22-Июн-2015 02:27

[Цитировать]

Тинтин и храм Солнца
Tintin et le temple du soleil
Страна: Франция, Бельгия, Швейцария
Жанр: мультфильм, детектив, приключения, семейный
Продолжительность: 01:17:38
Год выпуска: 1969-Перевод: Профессиональный (дублированный)
Русские субтитры: нет
Режиссёр: Эдди Латесте / Eddie Lateste-Описание: Профессор Турнесоль надел браслет с руки мумии и был похищен потомками инков, которые увезли его в Перу. Тинтин и его друзья отправляются на поиски профессора в приключения, которые приведут их к сердцу Перу - в Храм Солнца...-Релиз: | | -• Спасибо [url=http://***/forum/profile.php?mode=viewprofile&u=1793838]xfiles[/url] за DVB исходник.-Качество: [url=http://***/forum/viewtopic.php?t=4888882]SATRip[/url]
Формат: AVI
Видео: 720x400 (1.80:1), 25,000 fps, XviD 65 ~1 206 kbps avg, 0.17 bit/pixel
Аудио: 48.0 kHz, MPEG Layer 3, 2/0 (L,R) ch, ~128 kbps
Субтитры: отсутствуют

MI

Общее
Полное имя : E:\incarcare\rip gata\Les.Aventures.de.Tintin-Le.Temple.du.Soleil.1969.SATRip.avi
Формат : AVI
Формат/Информация : Audio Video Interleave
Размер файла : 746 Мбайт
Продолжительность : 1 ч. 17 м.
Общий поток : 1344 Кбит/сек
Программа кодирования : VirtualDubMod 1.5.10.2 (build 2540/release)
Библиотека кодирования : VirtualDubMod build 2540/release
Видео
Идентификатор : 0
Формат : MPEG-4 Visual
Профиль формата : Advanced Simple@L5
Параметр BVOP формата : 1
Параметр QPel формата : Нет
Параметр GMC формата : Без точки перехода
Параметр матрицы формата : Выборочная
Идентификатор кодека : XVID
Идентификатор кодека/Подсказка : XviD
Продолжительность : 1 ч. 17 м.
Битрейт : 1206 Кбит/сек
Ширина : 720 пикселей
Высота : 400 пикселей
Соотношение сторон : 16:9
Частота кадров : 25,000 кадров/сек
Цветовое пространство : YUV
Субдискретизация насыщенности : 4:2:0
Битовая глубина : 8 бит
Тип развёртки : Прогрессивная
Метод сжатия : С потерями
Бит/(Пиксели*Кадры) : 0.168
Размер потока : 670 Мбайт (90%)
Библиотека кодирования : XviD 65
Аудио
Идентификатор : 1
Формат : MPEG Audio
Версия формата : Version 1
Профиль формата : Layer 3
Идентификатор кодека : 55
Идентификатор кодека/Подсказка : MP3
Продолжительность : 1 ч. 17 м.
Вид битрейта : Постоянный
Битрейт : 128 Кбит/сек
Каналы : 2 канала
Частота : 48,0 КГц
Метод сжатия : С потерями
Размер потока : 71,1 Мбайт (10%)
Выравнивание : Соединение по промежуткам
Продолжительность промежутка : 40 мс. (1,00 видеокадр)
Время предзагрузки промежутка : 504 мс.
Скриншоты
Скачать

Скачать торрент! Тинтин: Храм Солнца / Tintin et le temple du soleil / Seven Crystal Balls and the Prisoners of the Sun (Эдди Латесте / Eddie Lateste) [1969, мультфильм, детектив, приключения, семейный, SATRip] DUB

Как скачивать? · Что такое торрент? · Рейтинг и ограничения

Сайт не распространяет и не хранит электронные версии произведений, а лишь предоставляет доступ к создаваемому пользователями каталогу ссылок на торрент-файлы, которые содержат только списки хеш-сумм

[Профиль] [ЛС]
Показать сообщения:    
Ответить на тему

Текущее время: Сегодня 00:29

Часовой пояс: GMT + 4



Вы не можете начинать темы
Вы не можете отвечать на сообщения
Вы не можете редактировать свои сообщения
Вы не можете удалять свои сообщения
Вы не можете голосовать в опросах
Вы не можете прикреплять файлы к сообщениям
Вы не можете скачивать файлы