Чат / Chatroom (Хидео Наката / Hideo Nakata) [2010, Великобритания, триллер, драма, DVDRip] DUB + DVO + original (eng)

Ответить на тему
 
Автор Сообщение

user ®

Стаж: 7 лет 7 месяцев

Сообщений: 20008

Пост Пост: #1 от 04-Ноя-2010 11:35

[Цитировать]

Чат / Chatroom
Страна: Великобритания
Студия: Ruby Films
Жанр: триллер, драма
Год выпуска: 2010
Продолжительность: 01:33:30
Перевод: Профессиональный (дублированный) + Профессиональный (двухголосый закадровый)
Субтитры: нет
Оригинальная аудиодорожка: английский
Режиссер: Хидео Наката / Hideo Nakata
В ролях: Аарон Джонсон, Имоджен Путс, Мэттью Бирд, Ханна Мюррэй, Дэниэл Калуя, Меган Доддс, Мишель Фэйрли, Николас Гливс, Джейкоб Андерсон, Таппенс Мидлтон...
Описание: Компания друзей-тинейджеров — Эва, Джим, Эмили и Мо — знакомится в чате с Уильямом — харизматичным юношей, который мгновенно их очаровывает. Для Уильяма, однако, новые друзья — повод затеять игру в кошки-мышки. Притворившись, что хочет помочь Джиму отказаться от антидепрессантов, он толкает его на путь саморазрушения.


Тип релиза: DVDRip, источник: DVD9 R5, предоставленный группой
Контейнер: AVI
Видео: 720x400 (16:9), 25.000 fps, XVID ~1774 kbps avg, 0.246 bit/pixel
Аудио : Русский, 48 kHz, AC3, 6 ch, 448.00 kbps Constant DUB
Аудио 2: Русский, 48 kHz, AC3, 6 ch, 448.00 kbps Constant (DVO, отдельным файлом)
Аудио 3: Английский, 48 kHz, AC3, 6 ch, 448.00 kbps Constant (отдельным файлом)

MediaInfo

General
Complete name : Chat.2010.D.DVDRip.avi
Format : AVI
Format/Info : Audio Video Interleave
File size : 1.46 GiB
Duration : 1h 33mn
Overall bit rate : 2 232 Kbps
Writing application : VirtualDubMod 1.5.10.3 (build 2550/release)
Writing library : VirtualDubMod build 2550/release
Video
ID : 0
Format : MPEG-4 Visual
Format profile : Advanced Simple@L5
Format settings, BVOP : Yes
Format settings, QPel : No
Format settings, GMC : No warppoints
Format settings, Matrix : Custom
Codec ID : XVID
Codec ID/Hint : XviD
Duration : 1h 33mn
Bit rate : 1 774 Kbps
Width : 720 pixels
Height : 400 pixels
Display aspect ratio : 16:9
Frame rate : 25.000 fps
Color space : YUV
Chroma subsampling : 4:2:0
Bit depth : 8 bits
Scan type : Progressive
Bits/(Pixel*Frame) : 0.246
Stream size : 1.16 GiB (79%)
Writing library : XviD 1.2.1 (UTC 2008-12-04)
Audio
ID : 1
Format : AC-3
Format/Info : Audio Coding 3
Mode extension : CM (complete main)
Codec ID : 2000
Duration : 1h 33mn
Bit rate mode : Constant
Bit rate : 448 Kbps
Channel(s) : 6 channels
Channel positions : Front: L C R, Side: L R, LFE
Sampling rate : 48.0 KHz
Bit depth : 16 bits
Stream size : 300 MiB (20%)
Alignment : Split accross interleaves
Interleave, duration : 40 ms (1.00 video frame)
Interleave, preload duration : 500 ms

Скриншот с названием

Скриншоты

Скачать

Скачать торрент!

Как скачивать? · Что такое торрент? · Рейтинг и ограничения

Сайт не распространяет и не хранит электронные версии произведений, а лишь предоставляет доступ к создаваемому пользователями каталогу ссылок на торрент-файлы, которые содержат только списки хеш-сумм

[Профиль] [ЛС]
Показать сообщения:    
Ответить на тему

Текущее время: Сегодня 14:11

Часовой пояс: GMT + 4



Вы не можете начинать темы
Вы не можете отвечать на сообщения
Вы не можете редактировать свои сообщения
Вы не можете удалять свои сообщения
Вы не можете голосовать в опросах
Вы не можете прикреплять файлы к сообщениям
Вы не можете скачивать файлы