Мортадело и Филимон против Джимми Торчка / Приключения Мортадело и Филимона 3 / Mortadelo y Filemón contra Jimmy el Cachondo (Хавьер Фессер / Javier Fesser) [2014, мультфильм, комедия, BDRip] AVO (Антон Алексеев) + Original Esp + Sub Eng, Esp

Ответить на тему
 
Автор Сообщение

user ®

Стаж: 12 лет

Сообщений: 15145

Пост Пост: #1 от 17-Июн-2015 01:42

[Цитировать]

Приключения Мортадело и Филимона 3
Mortadelo y Filemón contra Jimmy el Cachondo
Страна: Испания
Жанр: мультфильм, комедия
Продолжительность: 01:32:10
Год выпуска: 2014-Перевод: Авторский (одноголосый закадровый) Антон Алексеев
Русские субтитры: нет
Режиссёр: Хавьер Фессер / Javier Fesser-Роли озвучивали: Карра Элехальде, Джанфри Топера, Гэбриель Шаме, Рамон Ланга, Виктор Мониготе, Хосе Алиас, Мариано Венансио, Энрике Вильен, Эмилио Гавира, Берта Охеа-Описание: Злодей Джимми со своими помощниками похищает сейф с секретными документами прямо из штаб-квартиры разведагентства. Его начальнику не остается ничего иного как поручить возвращение документов двум агентам Мортадело и Филемону. В то же время из тюрьмы сбегает бандит, который жаждет отомстить Филемону за арест.-Релиз: | | -Качество: [url=http://***/forum/viewtopic.php?t=5019379]BDRip[/url]
Формат: AVI
Видео: 704x384 (1.83:1), 23,976 fps, XviD 66 ~1 817 kbps avg, 0.28 bit/pixel
Аудио: 48 kHz, AC3 Dolby Digital, 3/2 (L,C,R,l,r) + LFE ch, ~448 kbps avg |AVO|
Аудио: 48 kHz, AC3 Dolby Digital, 3/2 (L,C,R,l,r) + LFE ch, ~448 kbps avg |Spa| отдельно
Субтитры: Eng, Spa (Full SRT )

MI

General
Complete name : D:\Mortadelo.y.Filemon.contra.Jimmy.el.Cachondo.2014.BDRip\Mortadelo.y.Filemon.contra.Jimmy.el.Cachondo.2014.BDRip.avi
Format : AVI
Format/Info : Audio Video Interleave
File size : 1.46 GiB
Duration : 1h 32mn
Overall bit rate : 2 274 Kbps
Writing application : VirtualDubMod 1.5.10.2 (build 2540/release)
Writing library : VirtualDubMod build 2540/release
Video
ID : 0
Format : MPEG-4 Visual
Format profile : Advanced Simple@L5
Format settings, BVOP : 1
Format settings, QPel : No
Format settings, GMC : No warppoints
Format settings, Matrix : Custom
Codec ID : XVID
Codec ID/Hint : XviD
Duration : 1h 32mn
Bit rate : 1 817 Kbps
Width : 704 pixels
Height : 384 pixels
Display aspect ratio : 1.85:1
Frame rate : 23.976 fps
Color space : YUV
Chroma subsampling : 4:2:0
Bit depth : 8 bits
Scan type : Progressive
Compression mode : Lossy
Bits/(Pixel*Frame) : 0.280
Stream size : 1.17 GiB (80%)
Writing library : XviD 66
Audio
ID : 1
Format : AC-3
Format/Info : Audio Coding 3
Mode extension : CM (complete main)
Format settings, Endianness : Big
Codec ID : 2000
Duration : 1h 32mn
Bit rate mode : Constant
Bit rate : 448 Kbps
Channel(s) : 6 channels
Channel positions : Front: L C R, Side: L R, LFE
Sampling rate : 48.0 KHz
Compression mode : Lossy
Stream size : 295 MiB (20%)
Alignment : Split accross interleaves
Interleave, duration : 42 ms (1.00 video frame)
Interleave, preload duratio : 500 ms
Скриншоты
Скачать

Скачать торрент! Мортадело и Филимон против Джимми Торчка / Приключения Мортадело и Филимона 3 / Mortadelo y Filemón contra Jimmy el Cachondo (Хавьер Фессер / Javier Fesser) [2014, мультфильм, комедия, BDRip] AVO (Антон Алексеев) + Original Esp + Sub Eng, Esp

Как скачивать? · Что такое торрент? · Рейтинг и ограничения

Сайт не распространяет и не хранит электронные версии произведений, а лишь предоставляет доступ к создаваемому пользователями каталогу ссылок на торрент-файлы, которые содержат только списки хеш-сумм

[Профиль] [ЛС]
Показать сообщения:    
Ответить на тему

Текущее время: Сегодня 21:26

Часовой пояс: GMT + 4



Вы не можете начинать темы
Вы не можете отвечать на сообщения
Вы не можете редактировать свои сообщения
Вы не можете удалять свои сообщения
Вы не можете голосовать в опросах
Вы не можете прикреплять файлы к сообщениям
Вы не можете скачивать файлы