Связь / Affair (Наято Фио Нуала / Nayato Fio Nuala) [2010, Индонезия, Ужасы, DVDRip] DVO (DeadSno & den904)

Ответить на тему
 
Автор Сообщение

user ®

Стаж: 13 лет

Сообщений: 15071

Пост Пост: #1 от 15-Июн-2015 00:12

[Цитировать]

Связь / Affair
Страна: Индонезия
Жанр: Ужасы
Год выпуска: 2010
Продолжительность: 01:16:08
Озвучивание: Любительское (двухголосое закадровое) DeadSno & den904
Cубтитры: нет
Режиссер: Наято Фио Нуала / Nayato Fio Nuala
В ролях: Сиги Вимата, Гарнета Харуни, Димас Адитья, Моник Генри, Рохман Сувандата, Ромми Равалзи
Описание: Ретан и Сантин – лучшие подруги с детства. Но, по неудачному стечению обстоятельств, Ретан влюбляется в парня Сантин. Эта страсть поглощает девушек, они готовы не просто разрушить узы многолетней дружбы, но и зайти намного дальше. Ложь, предательство, лицемерие...До чего ещё доведёт пагубная страсть к мужчине?
Доп. информация: Перевод на русский язык: Куценко
Сэмпл: http://multi-up.com/1053639
Качество видео: DVDRip
Формат видео: AVI
Видео: XVID, 856x480, 25 fps, 1083 kbps
Аудио: AC3, 192 kbps, 48 KHz, 2 ch
MediaInfo
Format: AVI
Format/Info: Audio Video Interleave
File size: 700 MiB
Duration: 1h 16mn
Overall bit rate: 1 285 Kbps
Writing application: VirtualDubModRus 1.5.10.2 (build 2542/release)
Writing library: VirtualDubMod build 2542/release
Format: MPEG-4 Visual
Format profile: Advanced Simple@L5
Format settings, BVOP: 2
Format settings, QPel: No
Format settings, GMC: No warppoints
Format settings, Matrix: Default (H.263)
Codec ID: XVID
Codec ID/Hint: XviD
Duration: 1h 16mn
Bit rate: 1 083 Kbps
Width: 856 pixels
Height: 480 pixels
Display aspect ratio: 16:9
Original display aspect ratio: 16:9
Frame rate: 25.000 fps
Color space: YUV
Chroma subsampling: 4:2:0
Bit depth: 8 bits
Scan type: Progressive
Compression mode: Lossy
Bits/(Pixel*Frame): 0.105
Stream size: 590 MiB (84%)
Writing library: XviD 1.2.1 (UTC 2008-12-04)
Format: AC-3
Format/Info: Audio Coding 3
Mode extension: CM (complete main)
Format settings, Endianness: Big
Codec ID: 2000
Duration: 1h 16mn
Bit rate mode: Constant
Bit rate: 192 Kbps
Channel(s): 2 channels
Channel positions: Front: L R
Sampling rate: 48.0 KHz
Bit depth: 16 bits
Compression mode: Lossy
Stream size: 105 MiB (15%)
Alignment: Split accross interleaves
Interleave, duration: 40 ms (1.00 video frame)
Interleave, preload duration: 500 ms
Скриншот c названием фильма Скриншоты
Скачать

Скачать торрент! Связь / Affair (Наято Фио Нуала / Nayato Fio Nuala) [2010, Индонезия, Ужасы, DVDRip] DVO (DeadSno & den904)

Как скачивать? · Что такое торрент? · Рейтинг и ограничения

Сайт не распространяет и не хранит электронные версии произведений, а лишь предоставляет доступ к создаваемому пользователями каталогу ссылок на торрент-файлы, которые содержат только списки хеш-сумм

[Профиль] [ЛС]
Показать сообщения:    
Ответить на тему

Текущее время: Сегодня 22:21

Часовой пояс: GMT + 4



Вы не можете начинать темы
Вы не можете отвечать на сообщения
Вы не можете редактировать свои сообщения
Вы не можете удалять свои сообщения
Вы не можете голосовать в опросах
Вы не можете прикреплять файлы к сообщениям
Вы не можете скачивать файлы