Царь сновидений / Joseph: King of Dreams (Роб ЛаДука, Роберт С. Рамирез / Rob LaDuca, Robert C. Ramirez) [2000, мультфильм, мюзикл, драма, приключения, семейный, биография, история, WEB-DLRip] DUB + MVO + AVO

Ответить на тему
 
Автор Сообщение

user ®

Стаж: 12 лет

Сообщений: 15145

Пост Пост: #1 от 10-Июн-2015 02:27

[Цитировать]

Царь сновидений
Joseph: King of Dreams
Страна: США
Жанр: мультфильм, мюзикл, драма, приключения, семейный, биография, история
Продолжительность: 01:14:41
Год выпуска: 2000-Перевод: Профессиональный (Дублированный) По заказу "Первого канала"
Перевод: Профессиональный (Двухголосый закадровый) DVD R5
Перевод: Авторский (Одноголосый закадровый) Юрий Живов
Русские субтитры: нет
Режиссёр: Роб ЛаДука, Роберт С. Рамирез / Rob LaDuca, Robert C. Ramirez-Роли озвучивали: Бен Аффлек, Марк Хэмилл, Ричард Херд, Морин МакГоверн, Джоди Бенсон, Джудит Лайт, Джеймс Экхаус, Ричард МакГонагл, Дэвид Кэмпбелл, Стивен Уэбер-Описание: Cоздатели полнометражного мультфильма-блокбастера "Принц Египта", получившего премию Американской Киноакадемии "Оскар", представляют Вам новую, замечательную, анимационную картину для всей семьи. Компания Стивена Спилберга "DreamWorks" неизменно радует нас восхитительными мультфильмами: "Муравей Антц", "Дорога на Эльдорадо" и лауреат "Оскара", непревзойденный "Шрек". И, надо заметить, что это чудесная картина - не исключение! Как всегда Вас ждет прекрасная музыка, великолепная анимация и потрясающая история! Рассказ пойдет о чудо-юноше, который наделен удивительным даром видеть будущее и объяснять сны...-Релиз: | | -• Большое спасибо [url=http://***/forum/profile.php?mode=viewprofile&u=17572834]Lexa1988-L1[/url] за Дубляж и Isolated track;
• Большое спасибо [url=http://***/forum/profile.php?mode=viewprofile&u=1411081]sergey_n[/url] за голос Юрия Живова;
• Работа со звуком [url=http://***/forum/profile.php?mode=viewprofile&u=1793838]xfiles[/url]
• Работа с WEB-DL и звуком [url=http://***/forum/profile.php?mode=viewprofile&u=6758562]-Azureus-[/url]-Качество: [url=http://***/forum/viewtopic.php?t=5009843]WEB-DLRip[/url]
Формат: AVI
Видео: 688x384 (1.79:1), 23,976 fps, XviD 66 ~1 261 kbps avg, 0.20 bit/pixel
Аудио: 48.0 kHz, MPEG Layer 3, 1/0 (C) ch, ~128 kbps |По заказу "Первого канала"|
Аудио: 48.0 kHz, MPEG Layer 3, 2/0 (L,R) ch, ~128 kbps |DVD R5| отдельно
Аудио: 48.0 kHz, MPEG Layer 3, 2/0 (L,R) ch, ~128 kbps |Юрий Живов| отдельно
Субтитры: отсутствуют

MI

General
Complete name : D:\incarcare\rip gata\Joseph King of Dreams.2000.WEB-DLRip.746[dragomire]_rutracker.org\Joseph King of Dreams.2000.WEB-DLRip.[dragomire]_rutracker.org.avi
Format : AVI
Format/Info : Audio Video Interleave
File size : 747 MiB
Duration : 1h 14mn
Overall bit rate : 1 398 Kbps
Writing application : VirtualDubMod 1.5.10.2 (build 2540/release)
Writing library : VirtualDubMod build 2540/release
Video
ID : 0
Format : MPEG-4 Visual
Format profile : Advanced Simple@L5
Format settings, BVOP : 1
Format settings, QPel : No
Format settings, GMC : No warppoints
Format settings, Matrix : Custom
Codec ID : XVID
Codec ID/Hint : XviD
Duration : 1h 14mn
Bit rate : 1 261 Kbps
Width : 688 pixels
Height : 384 pixels
Display aspect ratio : 16:9
Frame rate : 23.976 fps
Color space : YUV
Chroma subsampling : 4:2:0
Bit depth : 8 bits
Scan type : Progressive
Compression mode : Lossy
Bits/(Pixel*Frame) : 0.199
Stream size : 673 MiB (90%)
Writing library : XviD 66
Audio
ID : 1
Format : MPEG Audio
Format version : Version 1
Format profile : Layer 3
Codec ID : 55
Codec ID/Hint : MP3
Duration : 1h 14mn
Bit rate mode : Constant
Bit rate : 128 Kbps
Channel(s) : 1 channel
Sampling rate : 48.0 KHz
Compression mode : Lossy
Stream size : 68.4 MiB (9%)
Alignment : Aligned on interleaves
Interleave, duration : 42 ms (1.00 video frame)
Interleave, preload duratio : 504 ms
Скриншоты Сравнение
[url=http://***/forum/viewtopic.php?t=488860]http://***/forum/viewtopic.php?t=488860[/url]
http://screenshotcomparison.com/comparison/130694-[url=http://***/forum/viewtopic.php?t=325356]http://***/forum/viewtopic.php?t=325356[/url]
http://screenshotcomparison.com/comparison/130695/picture:0
Скачать

Скачать торрент! Царь сновидений / Joseph: King of Dreams (Роб ЛаДука, Роберт С. Рамирез / Rob LaDuca, Robert C. Ramirez) [2000, мультфильм, мюзикл, драма, приключения, семейный, биография, история, WEB-DLRip] DUB + MVO + AVO

Как скачивать? · Что такое торрент? · Рейтинг и ограничения

Сайт не распространяет и не хранит электронные версии произведений, а лишь предоставляет доступ к создаваемому пользователями каталогу ссылок на торрент-файлы, которые содержат только списки хеш-сумм

[Профиль] [ЛС]
Показать сообщения:    
Ответить на тему

Текущее время: Сегодня 21:44

Часовой пояс: GMT + 4



Вы не можете начинать темы
Вы не можете отвечать на сообщения
Вы не можете редактировать свои сообщения
Вы не можете удалять свои сообщения
Вы не можете голосовать в опросах
Вы не можете прикреплять файлы к сообщениям
Вы не можете скачивать файлы