Бэтмен против Робина / Batman vs. Robin (Джей Олива / Jay Oliva) [2015, мультфильм, боевик, приключения, BDRip] MVO

Ответить на тему
 
Автор Сообщение

user ®

Стаж: 12 лет

Сообщений: 15145

Пост Пост: #1 от 10-Июн-2015 02:27

[Цитировать]

Бэтмен против Робина
Batman vs. Robin
Страна: США
Жанр: мультфильм, боевик, приключения
Продолжительность: 01:20:00
Год выпуска: 2015-Перевод: Профессиональный (Многоголосый закадровый)
Русские субтитры: нет
Режиссёр: Джей Олива / Jay Oliva-Роли озвучивали: Стюарт Аллан, Трой Бэйкер, Кевин Конрой, Тревор Дивэлл, Робин Аткин Даунс, Гриффин Глюк, Грэй Гриффин-Описание: В Готем возвращается тайная масонская организация Суд Сов, берущая на себя власть казнить как преступников, так и просто неугодных им городских деятелей. Выясняется, что именно они стали когда-то причиной убийства родителей Уэйна-Релиз: | | -Качество: [url=http://***/forum/viewtopic.php?t=4998919]BDRip[/url]
Формат: AVI
Видео: 688x384 (1.79:1), 23,976 fps, XviD 66 ~1 169 kbps avg, 0.18 bit/pixel
Аудио: 48.0 kHz, MPEG Layer 3, 2/0 (L,R) ch, ~128 kbps
Субтитры: отсутствуют

MI

General
Complete name : D:\incarcare\rip gata\Batman.vs.Robin.2015.BDRip[dragomire]_rutracker.org.avi
Format : AVI
Format/Info : Audio Video Interleave
File size : 747 MiB
Duration : 1h 19mn
Overall bit rate : 1 306 Kbps
Writing application : VirtualDubMod 1.5.10.2 (build 2540/release)
Writing library : VirtualDubMod build 2540/release
Video
ID : 0
Format : MPEG-4 Visual
Format profile : Advanced Simple@L5
Format settings, BVOP : 1
Format settings, QPel : No
Format settings, GMC : No warppoints
Format settings, Matrix : Custom
Codec ID : XVID
Codec ID/Hint : XviD
Duration : 1h 19mn
Bit rate : 1 169 Kbps
Width : 688 pixels
Height : 384 pixels
Display aspect ratio : 16:9
Frame rate : 23.976 fps
Color space : YUV
Chroma subsampling : 4:2:0
Bit depth : 8 bits
Scan type : Progressive
Compression mode : Lossy
Bits/(Pixel*Frame) : 0.184
Stream size : 669 MiB (89%)
Writing library : XviD 66
Audio
ID : 1
Format : MPEG Audio
Format version : Version 1
Format profile : Layer 3
Codec ID : 55
Codec ID/Hint : MP3
Duration : 1h 19mn
Bit rate mode : Constant
Bit rate : 128 Kbps
Channel(s) : 2 channels
Sampling rate : 48.0 KHz
Compression mode : Lossy
Stream size : 73.2 MiB (10%)
Alignment : Aligned on interleaves
Interleave, duration : 42 ms (1.00 video frame)
Interleave, preload duratio : 504 ms
Скриншоты
Скачать

Скачать торрент! Бэтмен против Робина / Batman vs. Robin (Джей Олива / Jay Oliva) [2015, мультфильм, боевик, приключения, BDRip] MVO

Как скачивать? · Что такое торрент? · Рейтинг и ограничения

Сайт не распространяет и не хранит электронные версии произведений, а лишь предоставляет доступ к создаваемому пользователями каталогу ссылок на торрент-файлы, которые содержат только списки хеш-сумм

[Профиль] [ЛС]
Показать сообщения:    
Ответить на тему

Текущее время: Сегодня 20:31

Часовой пояс: GMT + 4



Вы не можете начинать темы
Вы не можете отвечать на сообщения
Вы не можете редактировать свои сообщения
Вы не можете удалять свои сообщения
Вы не можете голосовать в опросах
Вы не можете прикреплять файлы к сообщениям
Вы не можете скачивать файлы