Мортадело и Филимон против Джимми Торчка / Приключения Мортадело и Филимона 3 / Mortadelo y Filemón contra Jimmy el Cachondo (Хавьер Фессер / Javier Fesser) [2014, комедия, BDRip-AVC] AVO (А. Алексеев) + Sub Eng, Spa + Original Spa

Ответить на тему
 
Автор Сообщение

user ®

Стаж: 13 лет

Сообщений: 15041

Пост Пост: #1 от 09-Июн-2015 01:42

[Цитировать]

Мортадело и Филимон против Джимми Торчка | Приключения Мортадело и Филимона 3
Mortadelo y Filemón contra Jimmy el Cachondo | Mortadelo and Filemon: Mission Implausible
- Страна: Испания
Жанр: комедия, приключения
Продолжительность: 01:32:10
Год выпуска: 2014
Перевод: Авторский (одноголосый закадровый) Антон Алексеев
Русские субтитры: нет
Режиссёр: Хавьер Фессер / Javier Fesser
Роли озвучивали: Карра Элехальде, Джанфри Топера, Гэбриель Шаме, Рамон Ланга, Виктор Мониготе, Хосе Алиас, Мариано Венансио, Энрике Вильен, Эмилио Гавира, Берта Охеа-ОписаниеЗлодей Джимми со своими помощниками похищает сейф с секретными документами прямо из штаб-квартиры разведагентства. Его начальнику не остается ничего иного как поручить возвращение документов двум агентам Мортадело и Филемону. В то же время из тюрьмы сбегает бандит, который жаждет отомстить Филемону за арест.-
Приключения Мортадело и Филимона 3 (Spanish: Mortadelo y Filemón contra Jimmy el Cachondo) испанский мультипликационный комедийный фильм, основанный на персонажах из Mort & Phil серии комиксов. Производство Ilion Animation Studios.
Гойя, 2015 год
Победитель (2):
Лучший адаптированный сценарий
Лучший анимационный фильм

Релиз:

Сэмпл

IMDb: 6.70 (585)
Качество: BDRip-AVC [url=http://***/forum/viewtopic.php?t=5019379]BDRemux 1080p[/url] zeleniydzhan
Формат: MKV
Видео: AVC 3500 Kbps 1136 x 614 (1.850) 23.976 fps
Аудио: AC-3 448 Kbps 6 channels, 48.0 KHz AVO Антон Алексеев
Аудио 2: AC-3 448 Kbps 6 channels, 48.0 KHz Spa
Субтитры: Eng, Spa [Full, SDH] SRT
MI | Log
Log
x264 [info]: frame I:1162 Avg QP:15.23 size: 93396
x264 [info]: frame P:36618 Avg QP:17.13 size: 34589
x264 [info]: frame B:94676 Avg QP:19.80 size: 11667
x264 [info]: consecutive B-frames: 5.7% 5.8% 13.7% 31.4% 13.4% 26.3% 2.0% 0.6% 0.4% 0.2% 0.2% 0.1% 0.2%
x264 [info]: mb I I16..4: 5.1% 69.1% 25.7%
x264 [info]: mb P I16..4: 1.7% 19.3% 3.6% P16..4: 25.4% 28.0% 11.0% 2.4% 0.3% skip: 8.4%
x264 [info]: mb B I16..4: 0.4% 2.6% 0.4% B16..8: 29.8% 20.2% 3.7% direct: 4.9% skip:38.0% L0:40.0% L1:44.7% BI:15.2%
x264 [info]: 8x8 transform intra:77.2% inter:58.5%
x264 [info]: direct mvs spatial:99.9% temporal:0.1%
x264 [info]: coded y,uvDC,uvAC intra: 82.2% 84.8% 66.9% inter: 22.5% 19.2% 5.2%
x264 [info]: i16 v,h,dc,p: 18% 24% 3% 55%
x264 [info]: i8 v,h,dc,ddl,ddr,vr,hd,vl,hu: 11% 12% 8% 9% 11% 11% 13% 11% 15%
x264 [info]: i4 v,h,dc,ddl,ddr,vr,hd,vl,hu: 15% 14% 7% 7% 12% 11% 12% 9% 12%
x264 [info]: i8c dc,h,v,p: 35% 31% 17% 17%
x264 [info]: Weighted P-Frames: Y:2.3% UV:1.7%
x264 [info]: ref P L0: 53.5% 12.5% 14.4% 5.3% 3.5% 2.6% 3.4% 1.6% 1.1% 0.9% 0.9% 0.3% 0.0%
x264 [info]: ref B L0: 79.3% 9.3% 3.9% 2.6% 1.3% 0.9% 1.3% 0.8% 0.3% 0.2%
x264 [info]: ref B L1: 93.8% 6.2%
x264 [info]: kb/s:3590.73
x264 [total]: encoded 132456 frames, 8.06 fps, 3590.73 kb/s, duration 4:34:01.26
Format : Matroska
Format version : Version 4 / Version 2
File size : 2.89 GiB
Duration : 1h 32mn
Overall bit rate : 4 486 Kbps
Encoded date : UTC 2015-06-08 18:45:05
Writing application : mkvmerge v6.7.0 ('Back to the Ground') 32bit built on Jan 8 2014 15:03:17
Writing library : libebml v1.3.0 + libmatroska v1.4.1
Video
ID : 1
Format : AVC
Format/Info : Advanced Video Codec
Format profile : High@L4.1
Format settings, CABAC : Yes
Format settings, ReFrames : 11 frames
Codec ID : V_MPEG4/ISO/AVC
Duration : 1h 32mn
Bit rate : 3 500 Kbps
Width : 1 136 pixels
Height : 614 pixels
Display aspect ratio : 1.85:1
Frame rate mode : Constant
Frame rate : 23.976 fps
Color space : YUV
Chroma subsampling : 4:2:0
Bit depth : 8 bits
Scan type : Progressive
Bits/(Pixel*Frame) : 0.209
Stream size : 2.25 GiB (78%)
Title : Mortadelo y FilemГіn contra Jimmy el Cachondo (2014) [***]
Writing library : x264 core 146 r2538kMod 121396c
Encoding settings : cabac=1 / ref=11 / deblock=1:-2:-1 / analyse=0x3:0x133 / me=umh / subme=11 / psy=1 / fade_compensate=0.00 / psy_rd=1.00:0.05 / mixed_ref=1 / me_range=32 / chroma_me=1 / trellis=2 / 8x8dct=1 / cqm=0 / deadzone=21,11 / fast_pskip=0 / chroma_qp_offset=-3 / threads=12 / lookahead_threads=3 / sliced_threads=0 / nr=0 / decimate=1 / interlaced=0 / bluray_compat=0 / constrained_intra=0 / fgo=0 / bframes=12 / b_pyramid=2 / b_adapt=2 / b_bias=0 / direct=3 / weightb=1 / open_gop=0 / weightp=2 / keyint=250 / keyint_min=23 / scenecut=40 / intra_refresh=0 / rc_lookahead=80 / rc=crf / mbtree=0 / crf=17.2000 / qcomp=0.60 / qpmin=0 / qpmax=69 / qpstep=4 / vbv_maxrate=50000 / vbv_bufsize=62500 / crf_max=0.0 / nal_hrd=none / filler=0 / ip_ratio=1.40 / pb_ratio=1.30 / aq=3:0.90
Language : Spanish
Default : Yes
Forced : No
Audio #1
ID : 2
Format : AC-3
Format/Info : Audio Coding 3
Mode extension : CM (complete main)
Format settings, Endianness : Big
Codec ID : A_AC3
Duration : 1h 32mn
Bit rate mode : Constant
Bit rate : 448 Kbps
Channel(s) : 6 channels
Channel positions : Front: L C R, Side: L R, LFE
Sampling rate : 48.0 KHz
Bit depth : 16 bits
Compression mode : Lossy
Stream size : 295 MiB (10%)
Title : AVO [A. Aleseev]
Language : Russian
Default : Yes
Forced : No
Audio #2
ID : 3
Format : AC-3
Format/Info : Audio Coding 3
Mode extension : CM (complete main)
Format settings, Endianness : Big
Codec ID : A_AC3
Duration : 1h 32mn
Bit rate mode : Constant
Bit rate : 448 Kbps
Channel(s) : 6 channels
Channel positions : Front: L C R, Side: L R, LFE
Sampling rate : 48.0 KHz
Bit depth : 16 bits
Compression mode : Lossy
Stream size : 295 MiB (10%)
Title : Original
Language : Spanish
Default : No
Forced : No
Text #1
ID : 4
Format : UTF-8
Codec ID : S_TEXT/UTF8
Codec ID/Info : UTF-8 Plain Text
Title : Full
Language : English
Default : No
Forced : No
Text #2
ID : 5
Format : UTF-8
Codec ID : S_TEXT/UTF8
Codec ID/Info : UTF-8 Plain Text
Title : Full
Language : Spanish
Default : No
Forced : No
Text #3
ID : 6
Format : UTF-8
Codec ID : S_TEXT/UTF8
Codec ID/Info : UTF-8 Plain Text
Title : SDH
Language : Spanish
Default : No
Forced : No
Menu
00:00:00.000 : en:00:00:00.000
00:08:49.070 : en:00:08:49.070
00:20:06.330 : en:00:20:06.330
00:30:31.079 : en:00:30:31.079
00:38:01.529 : en:00:38:01.529
00:50:07.421 : en:00:50:07.421
01:02:47.305 : en:01:02:47.305
01:12:45.360 : en:01:12:45.360
01:25:14.859 : en:01:25:14.859
Скриншоты
Скачать

Скачать торрент! Мортадело и Филимон против Джимми Торчка / Приключения Мортадело и Филимона 3 / Mortadelo y Filemón contra Jimmy el Cachondo (Хавьер Фессер / Javier Fesser) [2014, комедия, BDRip-AVC] AVO (А. Алексеев) + Sub Eng, Spa + Original Spa

Как скачивать? · Что такое торрент? · Рейтинг и ограничения

Сайт не распространяет и не хранит электронные версии произведений, а лишь предоставляет доступ к создаваемому пользователями каталогу ссылок на торрент-файлы, которые содержат только списки хеш-сумм

[Профиль] [ЛС]
Показать сообщения:    
Ответить на тему

Текущее время: Сегодня 10:38

Часовой пояс: GMT + 4



Вы не можете начинать темы
Вы не можете отвечать на сообщения
Вы не можете редактировать свои сообщения
Вы не можете удалять свои сообщения
Вы не можете голосовать в опросах
Вы не можете прикреплять файлы к сообщениям
Вы не можете скачивать файлы