Четверо 3 / Si da ming bu 3 / The Four 3 / The Four Final Battle (Гордон Чан / Gordon Chan) [2014, Китай, Гонконг, боевик, фэнтези, HDRip] DVO (GREEN TEA)

Ответить на тему
 
Автор Сообщение

user ®

Стаж: 13 лет

Сообщений: 15071

Пост Пост: #1 от 08-Июн-2015 10:12

[Цитировать]

Четверо 3 / Si da ming bu 3 / The Four 3 / The Four Final Battle
Страна: Китай, Гонконг
Жанр: боевик, фэнтези
Год выпуска: 2014
Продолжительность:01:46:38
Перевод: Любительский (двухголосый закадровый) [GREEN TEA]
Оригинальная аудиодорожка: нет
Cубтитры:нет
Режиссер: Гордон Чан / Gordon Chan
В ролях:Рональд Чэн, Колин Чоу, Чао Ден, Лю Ифэй, Энтони Вонг Чау Санг, Сиобо Ву, Вайсэ Лээ, Алек Су, Янь Лю, Цзян Иянь
Описание:Новое дело для четырех констеблей из Небесной Полиции - Жизнекрад, Хладнокровный, Железнорукий и Бесстрастная берутся за расследование.
Релиз:

Качество: HDRip
Контейнер: AVI
Видео: 672x288 (2.33:1), 23.976 fps, XviD build 50 ~839 kbps avg, 0.18 bit/pixel
Аудио: 48 kHz, MPEG Layer 3, 2 ch, ~128.00 kbps avg

MI
Общее
Полное имя : C:\Users\Вячеслав\Downloads\Четверо 3_HDrip_744_Некул.avi
Формат : AVI
Формат/Информация : Audio Video Interleave
Размер файла : 745 Мбайт
Продолжительность : 1 ч. 46 м.
Общий поток : 977 Кбит/сек
Программа кодирования : VirtualDubMod 1.5.10.3 | www.virtualdub-fr.org || (build 2550/release)
Библиотека кодирования : VirtualDubMod build 2550/release
Видео
Идентификатор : 0
Формат : MPEG-4 Visual
Профиль формата : Advanced Simple@L5
Параметр BVOP формата : 2
Параметр QPel формата : Нет
Параметр GMC формата : Без точки перехода
Параметр матрицы формата : Default (MPEG)
Идентификатор кодека : XVID
Идентификатор кодека/Подсказка : XviD
Продолжительность : 1 ч. 46 м.
Битрейт : 839 Кбит/сек
Ширина : 672 пикселя
Высота : 288 пикселей
Соотношение сторон : 2,35:1
Частота кадров : 23,976 кадра/сек
Цветовое пространство : YUV
Субдискретизация насыщенности : 4:2:0
Битовая глубина : 8 бит
Тип развёртки : Прогрессивная
Метод сжатия : С потерями
Бит/(Пиксели*Кадры) : 0.181
Размер потока : 640 Мбайт (86%)
Библиотека кодирования : XviD 1.2.1 (UTC 2008-12-04)
Аудио
Идентификатор : 1
Формат : MPEG Audio
Версия формата : Version 1
Профиль формата : Layer 3
Идентификатор кодека : 55
Идентификатор кодека/Подсказка : MP3
Продолжительность : 1 ч. 46 м.
Вид битрейта : Постоянный
Битрейт : 128 Кбит/сек
Каналы : 2 канала
Частота : 48,0 КГц
Метод сжатия : С потерями
Размер потока : 97,6 Мбайт (13%)
Выравнивание : Соединение по промежуткам
Продолжительность промежутка : 42 мс. (1,00 видеокадр)
Время предзагрузки промежутка : 504 мс.
Библиотека кодирования : LAME3.99r
Настройки программы : -m s -V 4 -q 2 -lowpass 17 -b 128
Скриншоты
Скачать

Скачать торрент! Четверо 3 / Si da ming bu 3 / The Four 3 / The Four Final Battle (Гордон Чан / Gordon Chan) [2014, Китай, Гонконг, боевик, фэнтези, HDRip] DVO (GREEN TEA)

Как скачивать? · Что такое торрент? · Рейтинг и ограничения

Сайт не распространяет и не хранит электронные версии произведений, а лишь предоставляет доступ к создаваемому пользователями каталогу ссылок на торрент-файлы, которые содержат только списки хеш-сумм

[Профиль] [ЛС]
Показать сообщения:    
Ответить на тему

Текущее время: Сегодня 20:58

Часовой пояс: GMT + 4



Вы не можете начинать темы
Вы не можете отвечать на сообщения
Вы не можете редактировать свои сообщения
Вы не можете удалять свои сообщения
Вы не можете голосовать в опросах
Вы не можете прикреплять файлы к сообщениям
Вы не можете скачивать файлы