Дом / Home (Тим Джонсон / Tim Johnson) [2115, Мультфильм, WEB-DLRip] Dub

Ответить на тему
 
Автор Сообщение

user ®

Стаж: 13 лет

Сообщений: 15041

Пост Пост: #1 от 07-Июн-2015 03:18

[Цитировать]

Дом / Home
Страна: США
Жанр: Мультфильм
Продолжительность: 01:34:23
Год выпуска: 2115
Перевод: Профессиональный (дублированный)
Русские субтитры: нет
Режиссёр: Тим Джонсон / Tim Johnson
Описание: Захватив Землю, раса пришельцев Був тут же начинает заниматься её благоустройством и реорганизацией. «Не стоит благодарности!» — заявляют они землянам, собранным на время в отдельных резервациях. Находчивая и рисковая девочка по имени Дар, чудом сбежавшая от пришельцев, встречает на своем пути самого раздражающе-оптимистичного Бува по имени О, отвергнутого своими инопланетными собратьями. Этой, казалось бы, несовместимой парочке предстоит спасти нашу планету. Хорошо, что у них есть летающий автомобиль!
Семпл: https://www.sendspace.com/file/gfls67
Спасибо Shellters-bob за исходник[url=http://***/forum/viewtopic.php?t=5009825]http://***/forum/viewtopic.php?t=5009825[/url]
Качество: WEB-DLRip
Формат: AVI
Видео: XVID; 1808 Кбит/сек; 720х400 (16:9); 23,976 кадра/сек
Аудио: AC-3; 384 Кбит/сек; 6 каналов; 48,0 КГц
Субтитры: Отсутствуют
Подробные технические данные
ОбщееПолное имя : E:\закачки\Дом [***].aviФормат : AVIФормат/Информация : Audio Video InterleaveРазмер файла : 1,45 ГбайтПродолжительность : 1 ч. 34 м.Общий поток : 2199 Кбит/секПрограмма кодирования : VirtualDubMod 1.5.10.2 (build 2540/release)Библиотека кодирования : VirtualDubMod build 2540/release
ВидеоИдентификатор : 0Формат : MPEG-4 VisualПрофиль формата : Advanced Simple@L5Параметр BVOP формата : 2Параметр QPel формата : НетПараметр GMC формата : Без точки переходаПараметр матрицы формата : Default (H.263)Идентификатор кодека : XVIDИдентификатор кодека/Подсказка : XviDПродолжительность : 1 ч. 34 м.Битрейт : 1808 Кбит/секШирина : 720 пикселейВысота : 400 пикселейСоотношение сторон : 16:9Частота кадров : 23,976 кадра/секЦветовое пространство : YUVСубдискретизация насыщенности : 4:2:0Битовая глубина : 8 битТип развёртки : ПрогрессивнаяМетод сжатия : С потерямиБит/(Пиксели*Кадры) : 0.262Размер потока : 1,19 Гбайт (82%)Библиотека кодирования : XviD 1.2.1 (UTC 2008-12-04)
АудиоИдентификатор : 1Формат : AC-3Формат/Информация : Audio Coding 3Расширение режима : CM (complete main)Параметр Endianness формата : BigИдентификатор кодека : 2000Продолжительность : 1 ч. 33 м.Вид битрейта : ПостоянныйБитрейт : 384 Кбит/секКаналы : 6 каналовРасположение каналов : Front: L C R, Side: L R, LFEЧастота : 48,0 КГцБитовая глубина : 16 битМетод сжатия : С потерямиРазмер потока : 258 Мбайт (17%)Выравнивание : Разделение по промежуткамПродолжительность промежутка : 42 мс. (1,01 видеокадр)Время предзагрузки промежутка : 500 мс.
Скриншоты
Скачать

Скачать торрент! Дом / Home (Тим Джонсон / Tim Johnson) [2115, Мультфильм, WEB-DLRip] Dub

Как скачивать? · Что такое торрент? · Рейтинг и ограничения

Сайт не распространяет и не хранит электронные версии произведений, а лишь предоставляет доступ к создаваемому пользователями каталогу ссылок на торрент-файлы, которые содержат только списки хеш-сумм

[Профиль] [ЛС]

rus27210

Стаж: 11 лет

Сообщений: 7

Пост Пост: #2 от 17-Июн-2015 17:50 (спустя 10 дней)

[Цитировать]

Отличный мультфильм. Смотрел с детьми в кинотеатре
[Профиль] [ЛС]
Показать сообщения:    
Ответить на тему

Текущее время: Сегодня 01:24

Часовой пояс: GMT + 4



Вы не можете начинать темы
Вы не можете отвечать на сообщения
Вы не можете редактировать свои сообщения
Вы не можете удалять свои сообщения
Вы не можете голосовать в опросах
Вы не можете прикреплять файлы к сообщениям
Вы не можете скачивать файлы