Северный дракон / Чудище с севера / Põhja konn (Эльберт Туганов) [1959, кукольный мультфильм, WEBRip] VO + Rus Sub

Ответить на тему
 
Автор Сообщение

user ®

Стаж: 7 лет 7 месяцев

Сообщений: 20008

Пост Пост: #1 от 04-Июн-2015 16:24

[Цитировать]

Северный дракон / Чудище с севера / Põhja konn
Страна: СССР
Производство: Таллинфильм
Жанр: кукольный мультфильм
Продолжительность: 00:18:10
Год выпуска: 1959
Перевод: Одноголосый закадровый
Русские субтитры: есть
Режиссёр: Эльберт Туганов
Описание: Мультфильм по мотивам сказки Фр.Крейцвальда, о смелом юноше спасшем землю от страшного дракона.
Кинопоиск
Качество: WEBRip
Формат: AVI
Видео: 720x528 (1.36:1), 25 fps, XviD MPEG-4 ~1980 kbps avg, 0.208 bit/pixel
Аудио: 48.0 kHz, MPEG Layer 3, 2 ch, ~128.00 kbps avg - русский
Аудио 2: 48.0 kHz, MPEG Layer 3, 2 ch, ~128.00 kbps avg - эстонский
Субтитры: русские (SRT)

Подробные технические данные
GeneralComplete name : E:\1\мультики\Северный дракон 1959\Северный дракон 1959.aviFormat : AVIFormat/Info : Audio Video InterleaveFile size : 293 MiBDuration : 18mn 10sOverall bit rate : 2 251 KbpsWriting application : VirtualDubMod 1.5.10.2 (build 2540/release)Writing library : VirtualDubMod build 2540/release
VideoID : 0Format : MPEG-4 VisualFormat profile : Advanced Simple@L5Format settings, BVOP : 2Format settings, QPel : NoFormat settings, GMC : No warppointsFormat settings, Matrix : Default (H.263)Codec ID : XVIDCodec ID/Hint : XviDDuration : 18mn 10sBit rate : 1 980 KbpsWidth : 720 pixelsHeight : 528 pixelsDisplay aspect ratio : 4:3Frame rate : 25.000 fpsColor space : YUVChroma subsampling : 4:2:0Bit depth : 8 bitsScan type : ProgressiveCompression mode : LossyBits/(Pixel*Frame) : 0.208Stream size : 258 MiB (88%)Writing library : XviD 73
Audio #1ID : 1Format : MPEG AudioFormat version : Version 1Format profile : Layer 3Mode : Joint stereoMode extension : MS StereoCodec ID : 55Codec ID/Hint : MP3Duration : 18mn 10sBit rate mode : ConstantBit rate : 128 KbpsChannel count : 2 channelsSampling rate : 48.0 KHzCompression mode : LossyStream size : 16.6 MiB (6%)Alignment : Aligned on interleavesInterleave, duration : 40 ms (1.00 video frame)Interleave, preload duration : 504 ms
Audio #2ID : 2Format : MPEG AudioFormat version : Version 1Format profile : Layer 3Mode : Joint stereoMode extension : MS StereoCodec ID : 55Codec ID/Hint : MP3Duration : 18mn 10sBit rate mode : ConstantBit rate : 128 KbpsChannel count : 2 channelsSampling rate : 48.0 KHzCompression mode : LossyStream size : 16.6 MiB (6%)Alignment : Aligned on interleavesInterleave, duration : 40 ms (1.00 video frame)Interleave, preload duration : 504 ms
Скриншоты
Скачать

Скачать торрент!

Как скачивать? · Что такое торрент? · Рейтинг и ограничения

Сайт не распространяет и не хранит электронные версии произведений, а лишь предоставляет доступ к создаваемому пользователями каталогу ссылок на торрент-файлы, которые содержат только списки хеш-сумм

[Профиль] [ЛС]
Показать сообщения:    
Ответить на тему

Текущее время: Сегодня 02:26

Часовой пояс: GMT + 4



Вы не можете начинать темы
Вы не можете отвечать на сообщения
Вы не можете редактировать свои сообщения
Вы не можете удалять свои сообщения
Вы не можете голосовать в опросах
Вы не можете прикреплять файлы к сообщениям
Вы не можете скачивать файлы