Корбуда (Аркадий Хинтибидзе, Гавриил Лаврелашвили) [1963, рисованный мультфильм, TVRip]

Ответить на тему
 
Автор Сообщение

user ®

Стаж: 7 лет 7 месяцев

Сообщений: 20008

Пост Пост: #1 от 26-Май-2015 08:51

[Цитировать]

Корбуда
Страна: СССР
Производство: Грузия-фильм
Жанр: рисованный мультфильм
Продолжительность: 00:20:01
Год выпуска: 1963
Русские субтитры: нет
Режиссёр: Аркадий Хинтибидзе, Гавриил Лаврелашвили
Описание: О благородном олене, который всегда приходил на помощь попавшим в беду.
Кинопоиск
Качество: TVRip
Формат: AVI
Видео: 640x480 (1.33:1), 25 fps, XviD MPEG-4 ~1604 kbps avg, 0.209 bit/pixel
Аудио: 44.1 kHz, MPEG Layer 3, 1 ch, ~96.00 kbps avg
Субтитры: Отсутствуют

Подробные технические данные
GeneralComplete name : E:\1\мультики\Корбуда 1963.aviFormat : AVIFormat/Info : Audio Video InterleaveFile size : 245 MiBDuration : 20mn 1sOverall bit rate : 1 709 KbpsWriting library : VirtualDub build 35512/release
VideoID : 0Format : MPEG-4 VisualFormat profile : Advanced Simple@L5Format settings, BVOP : 2Format settings, QPel : NoFormat settings, GMC : No warppointsFormat settings, Matrix : Default (H.263)Codec ID : XVIDCodec ID/Hint : XviDDuration : 20mn 1sBit rate : 1 604 KbpsWidth : 640 pixelsHeight : 480 pixelsDisplay aspect ratio : 4:3Frame rate : 25.000 fpsColor space : YUVChroma subsampling : 4:2:0Bit depth : 8 bitsScan type : ProgressiveCompression mode : LossyBits/(Pixel*Frame) : 0.209Stream size : 230 MiB (94%)Writing library : XviD 73
AudioID : 1Format : MPEG AudioFormat version : Version 1Format profile : Layer 3Codec ID : 55Codec ID/Hint : MP3Duration : 20mn 1sBit rate mode : ConstantBit rate : 96.0 KbpsChannel count : 1 channelSampling rate : 44.1 KHzCompression mode : LossyStream size : 13.8 MiB (6%)Alignment : Split accross interleavesInterleave, duration : 40 ms (1.00 video frame)Interleave, preload duration : 500 ms
Скриншоты
Скачать

Скачать торрент!

Как скачивать? · Что такое торрент? · Рейтинг и ограничения

Сайт не распространяет и не хранит электронные версии произведений, а лишь предоставляет доступ к создаваемому пользователями каталогу ссылок на торрент-файлы, которые содержат только списки хеш-сумм

[Профиль] [ЛС]
Показать сообщения:    
Ответить на тему

Текущее время: Сегодня 02:04

Часовой пояс: GMT + 4



Вы не можете начинать темы
Вы не можете отвечать на сообщения
Вы не можете редактировать свои сообщения
Вы не можете удалять свои сообщения
Вы не можете голосовать в опросах
Вы не можете прикреплять файлы к сообщениям
Вы не можете скачивать файлы