Ай - девyшка с кассеты / Video Girl Ai / Denei Shoujo Ai (Канэда Рю / Kaneda Ryu) [1991, Япония, романтика, комедия, мелодрама, VHSRip] VO (aleksei80)

Ответить на тему
 
Автор Сообщение

user ®

Стаж: 13 лет

Сообщений: 15071

Пост Пост: #1 от 25-Май-2015 23:30

[Цитировать]

Ай - девyшка с кассеты / Video Girl Ai / Denei Shoujo Ai
Страна: Япония
Жанр: романтика, комедия, мелодрама
Год выпуска: 1991
Продолжительность: 01:40:11
Перевод: Одноголосый закадровый aleksei80
Cубтитры: Английский хардсаб [SkewedS]
Оригинальная аудиодорожка: нет
Режиссер: Канэда Рю / Kaneda Ryu
В ролях: Сакагами Каори
Осава Кен
Хамагучи Хироми
Хосака Наоки
Описание: Школьник Ёта (Осава Кен) катастрофически неловок в общении с девушками. Всё потому, что в детстве, когда он объяснился одной девочке в любви, его высмеяли. Теперь Ёта комплексует, и не решается сказать о своей любви милой однокласснице Моэми (Хамагучи Хироми), боится услышать отказ. К тому же Моэми любит не его, а красавца Такаши (Хосака Наоки), притом, что тот не обращает на неё внимания. В расстроенных чувствах Ёта забредает в какой-то странный салон видеопроката, где получает кассету с . Девушка по имени Ай (что значит ) оказывается непростая - она сходит с экрана телевизора, и по-настоящему пытается его утешить. Ай (Сакагами Каори) старается приободрить Ёту и наладить его отношения с Моэми. Однако в процессе Ай сама влюбляется в Ёту, хотя видео-девушки не должны испытывать человеческие чувства. В довершение всего Такаши, похоже, не остался равнодушен к Ай, замыкая любовный четырехугольник. Что же из всего этого выйдет?..
Чрезвычайно известная история, основанная на манге Кацуры Масакадзу. Причем этот лайв-экшен был снят раньше, чем одноименное аниме, и сюжет тут развивается по-другому. В общем, всё довольно мило и романтично (ну ещё бы - Кацура всё-таки), хотя как всегда не обошлось без изрядной доли трагедии.
Сэмпл: http://multi-up.com/1050304
Качество видео: VHSRip
Формат видео: AVI
Видео: XVID, 720x400, 16:9, 29.970 fps, 1 819 Kbps
Аудио: MP3, 44.1 KHz, 192 Kbps, 2 channels
MediaInfo
General
Complete name : C:\Users\котэ\Downloads\раздача на рутрекере\Video_Girl_Ai_Live_Action.avi
Format : AVI
Format/Info : Audio Video Interleave
File size : 1.42 GiB
Duration : 1h 40mn
Overall bit rate : 2 023 Kbps
Writing application : MEncoder Sherpya-SVN-r27811-4.2.5
Writing library : VirtualDub build 32842/release
Video
ID : 0
Format : MPEG-4 Visual
Format profile : Simple@L3
Format settings, BVOP : No
Format settings, QPel : No
Format settings, GMC : No warppoints
Format settings, Matrix : Default (H.263)
Codec ID : XVID
Codec ID/Hint : XviD
Duration : 1h 40mn
Bit rate : 1 819 Kbps
Width : 720 pixels
Height : 400 pixels
Display aspect ratio : 16:9
Frame rate : 29.970 fps
Color space : YUV
Chroma subsampling : 4:2:0
Bit depth : 8 bits
Scan type : Progressive
Compression mode : Lossy
Bits/(Pixel*Frame) : 0.211
Stream size : 1.27 GiB (90%)
Writing library : XviD 1.1.2 (UTC 2006-11-01)
Audio
ID : 1
Format : MPEG Audio
Format version : Version 1
Format profile : Layer 3
Mode : Joint stereo
Mode extension : MS Stereo
Codec ID : 55
Codec ID/Hint : MP3
Duration : 1h 40mn
Bit rate mode : Constant
Bit rate : 192 Kbps
Channel(s) : 2 channels
Sampling rate : 44.1 KHz
Compression mode : Lossy
Stream size : 138 MiB (9%)
Alignment : Split accross interleaves
Interleave, duration : 33 ms (1.00 video frame)
Interleave, preload duration : 500 ms
Writing library : LAME3.97
Скриншот c названием фильма Скриншоты
Скачать

Скачать торрент! Ай - девyшка с кассеты / Video Girl Ai / Denei Shoujo Ai (Канэда Рю / Kaneda Ryu) [1991, Япония, романтика, комедия, мелодрама, VHSRip] VO (aleksei80)

Как скачивать? · Что такое торрент? · Рейтинг и ограничения

Сайт не распространяет и не хранит электронные версии произведений, а лишь предоставляет доступ к создаваемому пользователями каталогу ссылок на торрент-файлы, которые содержат только списки хеш-сумм

[Профиль] [ЛС]
Показать сообщения:    
Ответить на тему

Текущее время: Сегодня 17:09

Часовой пояс: GMT + 4



Вы не можете начинать темы
Вы не можете отвечать на сообщения
Вы не можете редактировать свои сообщения
Вы не можете удалять свои сообщения
Вы не можете голосовать в опросах
Вы не можете прикреплять файлы к сообщениям
Вы не можете скачивать файлы