Доверчивый дракон (Леонид Шварцман) [1988, рисованный мультфильм, SATRip]

Ответить на тему
 
Автор Сообщение

user ®

Стаж: 7 лет 7 месяцев

Сообщений: 20008

Пост Пост: #1 от 18-Май-2015 21:18

[Цитировать]

Доверчивый дракон
Страна: СССР
Жанр: рисованный мультфильм
Продолжительность: 00:09:35
Год выпуска: 1988
Русские субтитры: нет
Режиссёр: Леонид Шварцман
Роли озвучивали: Леонид Ярмольник, Ольга Аросева, Борис Новиков, Юрий Пузырев, Георгий Бурков, Евгений Весник, Спартак Мишулин, Людмила Иванова
Описание: Современная сказка о том, как появившийся на свет Дракон, встретив к себе хорошее отношение стал милым добродушным существом.
Доп. информация: «Союзмультфильм»
аниматоры: Александр Дорогов, Наталия Богомолова, Татьяна Померанцева, Галина Зеброва, Дмитрий Куликов, Виктор Арсентьев
Релиз группы:
Исходник для рипа любезно представлен SLuMeP
PS: Рип без логотипа канала
Качество: SATRip
Формат: AVI
Видео: 640x480 (1.33:1), 25 fps, XviD MPEG-4 ~2102 kbps avg, 0.27 bit/pixel
Аудио: 48 kHz, AC3 Dolby Digital, 1/0 (C) ch, ~128.00 kbps avg
Субтитры: нет
Подробные технические данные
Format : AVIFormat/Info : Audio Video InterleaveFile size : 154 MiBDuration : 9mn 35sOverall bit rate : 2 240 KbpsWriting application : VirtualDubModRus 1.5.10.2 (build 2542/release)Copyright : Rutracker.orgComment : SATRip by dvdss
VideoID : 0Format : MPEG-4 VisualFormat profile : Advanced Simple@L5Format settings, BVOP : 1Format settings, QPel : NoFormat settings, GMC : No warppointsFormat settings, Matrix : CustomCodec ID : XVIDCodec ID/Hint : XviDDuration : 9mn 35sBit rate : 2 103 KbpsWidth : 640 pixelsHeight : 480 pixelsDisplay aspect ratio : 5:4Original display aspect ratio : 4:3Frame rate : 25.000 fpsColor space : YUVChroma subsampling : 4:2:0Bit depth : 8 bitsScan type : ProgressiveCompression mode : LossyBits/(Pixel*Frame) : 0.274Stream size : 144 MiB (94%)Writing library : XviD 65
AudioID : 1Format : AC-3Format/Info : Audio Coding 3Mode extension : CM (complete main)Format settings, Endianness : BigCodec ID : 2000Duration : 9mn 35sBit rate mode : ConstantBit rate : 128 KbpsChannel(s) : 1 channelChannel positions : Front: CSampling rate : 48.0 KHzBit depth : 16 bitsCompression mode : LossyStream size : 8.77 MiB (6%)Alignment : Split accross interleavesInterleave, duration : 40 ms (1.00 video frame)Interleave, preload duration : 500 ms
сравнение
Сравнение с [url=http://***/forum/viewtopic.php?t=523134]http://***/forum/viewtopic.php?t=523134[/url]
Тут -- http://screenshotcomparison.com/comparison/127522/picture:0
Сравнение с [url=http://***/forum/viewtopic.php?t=3559446]http://***/forum/viewtopic.php?t=3559446[/url]
Тут -- http://screenshotcomparison.com/comparison/127524/picture:1
Скриншоты
Скачать

Скачать торрент!

Как скачивать? · Что такое торрент? · Рейтинг и ограничения

Сайт не распространяет и не хранит электронные версии произведений, а лишь предоставляет доступ к создаваемому пользователями каталогу ссылок на торрент-файлы, которые содержат только списки хеш-сумм

[Профиль] [ЛС]
Показать сообщения:    
Ответить на тему

Текущее время: Сегодня 09:43

Часовой пояс: GMT + 4



Вы не можете начинать темы
Вы не можете отвечать на сообщения
Вы не можете редактировать свои сообщения
Вы не можете удалять свои сообщения
Вы не можете голосовать в опросах
Вы не можете прикреплять файлы к сообщениям
Вы не можете скачивать файлы