Суета сует / Rabhasa (Сантош Шринивас / Santosh Srinivas) [2014, Индия, Комедийный боевик, HDRip] Sub Rus

Ответить на тему
 
Автор Сообщение

user ®

Стаж: 12 лет

Сообщений: 15092

Пост Пост: #1 от 18-Май-2015 21:18

[Цитировать]

Суета сует / Rabhasa
Страна: Индия
Жанр: Комедийный боевик
Год выпуска: 2014
Продолжительность: 02:22:00
Перевод: Субтитры
Cубтитры: русские
Оригинальная аудиодорожка: телугу
Перевод субтитров: Wita
Режиссер: Сантош Шринивас / Santosh Srinivas
В ролях: НТР-мл., Саманта Рут Прабху, Брахманандам, Аджай, Джаяпракаш Редди, Пранита Субхаш, Шраван, Али, Рагху Бабу
Описание: Неудачная получилась двойная свадьба на селе: одна невеста сбежала из-под венца, вторую жених бросил, еще одному жениху голову проломили. Во всем виноват один парень, но он всего лишь мимо проезжал... А в Хайдарабаде кандидат в мэры терпит фиаско в предвыборной кампании – и тоже по вине того самого парня. В общем, наш герой Картик везде поспел. Нажил себе врагов, а все потому, что мама заказала ему конкретную невестку: «хочу, говорит, чтобы Читти была невесткой в моем доме». Только где ее найти, эту Читти, они с Картиком лет 20 не виделись.
А если вы ничего не поняли - быстро смотреть фильм.
Сэмпл: http://multi-up.com/1048949
Качество видео: HDRip
Формат видео: MKV
Видео: x264, 1152 х 488, 2.35:1, 25.000 fps, 1 484 Kbps
Аудио: AC-3, 48.0 kHz, 384 Kbps, 6 channels, Original
Формат субтитров: hardsub (неотключаемые)
MediaInfo
Complete name : Sueta.suet.2014.HDRip.x264.mkv
Format : Matroska
File size : 1.85 GiB
Duration : 2h 22mn
Overall bit rate : 1 870 Kbps
Encoded date : UTC 2015-05-17 03:12:54
Writing application : mkvmerge v5.0.1 ('Es ist Sommer') built on Nov 6 2011 16:23:40
Writing library : libebml v1.2.2 + libmatroska v1.3.0
Video
ID : 1
Format : AVC
Format/Info : Advanced Video Codec
Format profile : High@L3.1
Format settings, CABAC : Yes
Format settings, ReFrames : 4 frames
Format settings, GOP : M=4, N=16
Muxing mode : Container profile=Unknown@3.1
Codec ID : V_MPEG4/ISO/AVC
Duration : 2h 22mn
Bit rate : 1 484 Kbps
Width : 1 152 pixels
Height : 488 pixels
Display aspect ratio : 2.35:1
Frame rate : 25.000 fps
Color space : YUV
Chroma subsampling : 4:2:0
Bit depth : 8 bits
Scan type : Progressive
Bits/(Pixel*Frame) : 0.106
Stream size : 1.44 GiB (77%)
Writing library : x264 core 119 r2106 07efeb4
Audio
ID : 2
Format : AC-3
Format/Info : Audio Coding 3
Mode extension : CM (complete main)
Codec ID : A_AC3
Duration : 2h 22mn
Bit rate mode : Constant
Bit rate : 384 Kbps
Channel(s) : 6 channels
Channel positions : Front: L C R, Side: L R, LFE
Sampling rate : 48.0 KHz
Stream size : 390 MiB (21%)
Скриншот c названием фильма Скриншоты
Скачать

Скачать торрент! Суета сует / Rabhasa (Сантош Шринивас / Santosh Srinivas) [2014, Индия, Комедийный боевик, HDRip] Sub Rus

Как скачивать? · Что такое торрент? · Рейтинг и ограничения

Сайт не распространяет и не хранит электронные версии произведений, а лишь предоставляет доступ к создаваемому пользователями каталогу ссылок на торрент-файлы, которые содержат только списки хеш-сумм

[Профиль] [ЛС]
Показать сообщения:    
Ответить на тему

Текущее время: Сегодня 01:56

Часовой пояс: GMT + 4



Вы не можете начинать темы
Вы не можете отвечать на сообщения
Вы не можете редактировать свои сообщения
Вы не можете удалять свои сообщения
Вы не можете голосовать в опросах
Вы не можете прикреплять файлы к сообщениям
Вы не можете скачивать файлы