День восьмой или первый урок мышления (Владимир Дахно) [1971, Рисованный мультфильм, SATRip]

Ответить на тему
 
Автор Сообщение

user ®

Стаж: 7 лет 7 месяцев

Сообщений: 20008

Пост Пост: #1 от 14-Май-2015 21:18

[Цитировать]

День восьмой или первый урок мышления
Страна: CCCР
Жанр: Рисованный мультфильм
Продолжительность: 00:09:37
Год выпуска: 1971
Русские субтитры: нет
Режиссёр: Владимир Дахно
Описание: А что же было после дня Творения человека? Вы действительно думаете, что после дня законного отдыха Бог стал придерживаться политики невмешательства? Нет, он захотел научить человека важнейшему навыку и оружию — умению размышлять. Что получилось из такой чудесной затеи…
Доп. информация: «Киевнаучфильм»
Раздача группы:
Рип by Itartass
Качество: SATRip
Формат: AVI
Видео: 704x528 (1.33:1), 25 fps, XviD build 64 ~2200 kbps avg, 0.24 bit/pixel
Аудио: 48 kHz, MPEG Layer 3, 2 ch, ~192.00 kbps avg
Субтитры: нет
Подробные технические данные
Format : AVIFormat/Info : Audio Video InterleaveFile size : 165 MiBDuration : 9mn 37sOverall bit rate : 2 402 KbpsWriting application : VirtualDubMod 1.5.10.3 | www.virtualdub-fr.org || (build 2550/release)Writing library : VirtualDubMod build 2550/release
VideoID : 0Format : MPEG-4 VisualFormat profile : Advanced Simple@L5Format settings, BVOP : 2Format settings, QPel : NoFormat settings, GMC : No warppointsFormat settings, Matrix : CustomCodec ID : XVIDCodec ID/Hint : XviDDuration : 9mn 37sBit rate : 2 200 KbpsWidth : 704 pixelsHeight : 528 pixelsDisplay aspect ratio : 4:3Frame rate : 25.000 fpsColor space : YUVChroma subsampling : 4:2:0Bit depth : 8 bitsScan type : ProgressiveCompression mode : LossyBits/(Pixel*Frame) : 0.237Stream size : 151 MiB (92%)Writing library : XviD 64
AudioID : 1Format : MPEG AudioFormat version : Version 1Format profile : Layer 3Codec ID : 55Codec ID/Hint : MP3Duration : 9mn 37sBit rate mode : ConstantBit rate : 192 KbpsChannel(s) : 2 channelsSampling rate : 48.0 KHzCompression mode : LossyStream size : 13.2 MiB (8%)Alignment : Aligned on interleavesInterleave, duration : 40 ms (1.00 video frame)Interleave, preload duration : 504 msWriting library : LAME3.98rEncoding settings : -m s -V 4 -q 0 -lowpass 18.6 -b 192
сравнение
Сравнение с [url=http://***/forum/viewtopic.php?t=749277]http://***/forum/viewtopic.php?t=749277[/url]
Тут -- http://screenshotcomparison.com/comparison/126800/picture:0
Скриншоты
Скачать

Скачать торрент!

Как скачивать? · Что такое торрент? · Рейтинг и ограничения

Сайт не распространяет и не хранит электронные версии произведений, а лишь предоставляет доступ к создаваемому пользователями каталогу ссылок на торрент-файлы, которые содержат только списки хеш-сумм

[Профиль] [ЛС]
Показать сообщения:    
Ответить на тему

Текущее время: Сегодня 01:50

Часовой пояс: GMT + 4



Вы не можете начинать темы
Вы не можете отвечать на сообщения
Вы не можете редактировать свои сообщения
Вы не можете удалять свои сообщения
Вы не можете голосовать в опросах
Вы не можете прикреплять файлы к сообщениям
Вы не можете скачивать файлы