Уважаемый / Izzatdaar (К. Бапайя / K. Bapaiah, Дж. Хемамбар / J. Hemambar) [1990, Индия, Боевик, триллер, драма, криминал, DVDRip] Sub Rus

Ответить на тему
 
Автор Сообщение

user ®

Стаж: 12 лет

Сообщений: 15092

Пост Пост: #1 от 04-Май-2015 04:18

[Цитировать]

Уважаемый / Izzatdaar
Страна: Индия
Жанр: Боевик, триллер, драма, криминал
Год выпуска: 1990
Продолжительность: 02:44:02
Перевод: Субтитры baksterier0
Cубтитры: русские
Оригинальная аудиодорожка: хинди
Режиссеры: К. Бапайя / K. Bapaiah, Дж. Хемамбар / J. Hemambar
В ролях: Говинда, Мадхури Дикшит, Дилип Кумар, Анупам Кхер, Рагхуваран, Шакти Капур, Говардан Асрани, Шива Риндани, Юнус Парвез, Тедж Сапру, Викас Ананд, Ракеш Беди, Дилип Дхаван, Мукри, Шафи Инамдар, Мастер Анкур, Бхаратхи, Гудди Марути
Описание: Брахмдатт (Дилип Кумар), Премчанд (Шафи Инэмдэр) и Муштакали (Анупам Кхер) верные друзья, для которых нет большего бога, чем любовь друг к другу. Дочь Брахмдатта Сону (Свапна) против его желания выходит замуж за бедного молодого человека Индерджита (Рагхуваран), который уже женат на Радхике (Тина Гай) и имеет от неё сына Виджая. После ухода из семьи отца, Виджай убегает из дома. Повзрослев он становится влиятельным Доном (Говинда) родного города. Индерджит становится генеральным менеджером на стателитейном заводе, принадлежащем Брахмдатту и Премчанду, и здесь он предстаёт в своём истинном обличье, добиваясь успеха любой ценой. Он убивает Премчанда и предъявляет Брахмдатту обвинение в убийстве друга. Брахмдатт попадает в тюрьму на 12 лет, где начальником тюрьмы служит никто иной, как Муштакали. Индерджит выгоняет жену Брахмдатта Суджату на улицу. Не удовлетворенный добытым нечестным путем богатством Индерджит теперь хочет жениться на дочери и наследнице Премчанда Мохини (Мадхури Дикшит), чтобы захватить и её долю наследства. Но когда она отвергает его, он нанимает для её убийсва Виджая, не зная, что молодые люди любят друг друга. Когда Сону узнает об этом, она противостоит Индерджиту, но ей также наносят смертельный удар. Брахмдатт тем временем выходит из тюрьмы. Он объединяется с Виджаем и вместе они начинают сражение за высшую справедливость и мстят за преступления, совершённые Индерджитом.
Доп. информация: Релиз: Tarahb (Спасибо!)
Перевод субтитров: baksterier0 (Спасибо!)
Сэмпл: http://multi-up.com/1046708
Качество видео: DVDRip
Формат видео: AVI
Видео: XviD build 50, 704x528 (1.33:1), 59.917 fps, 1461 kbps avg
Аудио: Hindi MPEG Layer 3, 44.100 kHz, 2/0 (L,R) ch, 128.00 kbps avg
Формат субтитров: hardsub (неотключаемые)
MediaInfo
General
Complete name : F:\Uvazhaemyi.1990.DVDRip.Xvid.avi
Format : AVI
Format/Info : Audio Video Interleave
File size : 1.85 GiB
Duration : 2h 44mn
Overall bit rate : 1 612 Kbps
Writing application : VirtualDubMod 1.5.10.2 (build 2542/release)
Writing library : VirtualDubMod build 2542/release
Video
ID : 0
Format : MPEG-4 Visual
Format profile : Simple@L0
Format settings, BVOP : No
Format settings, QPel : No
Format settings, GMC : No warppoints
Format settings, Matrix : Default (H.263)
Codec ID : XVID
Codec ID/Hint : XviD
Duration : 2h 44mn
Bit rate : 1 460 Kbps
Width : 704 pixels
Height : 528 pixels
Display aspect ratio : 4/3
Frame rate : 59.940 fps
Resolution : 24 bits
Colorimetry : 4:2:0
Scan type : Progressive
Bits/(Pixel*Frame) : 0.066
Stream size : 1.67 GiB (91%)
Writing library : XviD 1.2.1 (UTC 2008-12-04)
Audio
ID : 1
Format : MPEG Audio
Format version : Version 1
Format profile : Layer 3
Codec ID : 55
Codec ID/Hint : MP3
Duration : 2h 44mn
Bit rate mode : Constant
Bit rate : 128 Kbps
Channel(s) : 2 channels
Sampling rate : 44.1 KHz
Resolution : 16 bits
Stream size : 150 MiB (8%)
Alignment : Split accross interleaves
Interleave, duration : 17 ms (1.00 video frame)
Interleave, preload duration : 500 ms
Скриншоты
Скачать

Скачать торрент! Уважаемый / Izzatdaar (К. Бапайя / K. Bapaiah, Дж. Хемамбар / J. Hemambar) [1990, Индия, Боевик, триллер, драма, криминал, DVDRip] Sub Rus

Как скачивать? · Что такое торрент? · Рейтинг и ограничения

Сайт не распространяет и не хранит электронные версии произведений, а лишь предоставляет доступ к создаваемому пользователями каталогу ссылок на торрент-файлы, которые содержат только списки хеш-сумм

[Профиль] [ЛС]
Показать сообщения:    
Ответить на тему

Текущее время: Сегодня 18:40

Часовой пояс: GMT + 4



Вы не можете начинать темы
Вы не можете отвечать на сообщения
Вы не можете редактировать свои сообщения
Вы не можете удалять свои сообщения
Вы не можете голосовать в опросах
Вы не можете прикреплять файлы к сообщениям
Вы не можете скачивать файлы