Холодное Сердце / Jigarthanda (Картик Суббарадж / Karthik Subbaraj) [2014, Индия, боевик, комедия, драма, DVDRip] Sub Rus

Ответить на тему
 
Автор Сообщение

user ®

Стаж: 12 лет

Сообщений: 15092

Пост Пост: #1 от 26-Апр-2015 13:30

[Цитировать]

Холодное Сердце / Jigarthanda Страна: Индия (Колливуд)
Жанр: боевик, комедия, драма, триллер
Год выпуска: 2014
Продолжительность: 02:44:24
Перевод: Субтитры
Cубтитры: русские
Авторы перевода: Sashylya & Oxy
Редакция перевода и субтитры: Oxy
Оригинальная аудиодорожка: Тамили
Режиссер: Картик Суббарадж / Karthik Subbaraj
В ролях: [url=http://***/forum/viewtopic.php?t=4776492]Сиддхарт[/url] (Картик), Бобби Симха (Сету), Карунакаран (Урни), Лакшми Менон (Каял), Рамачандран (Расу), Гуру Сомасундарам (мастер Муту), Нарин (продюсер Сундар) и др. Виджай Сетхупати и реж. Ветримаран - special appearance.
Описание: Картик - начинающий режиссер. Ему выпал шанс снять первый полнометражный фильм. У него есть сценарий, но продюсер хочет только жесткий гангстерский фильм... Картик соглашается, но решает для себя, что это будет фильм о реальном гангстере, основанный на реальных событиях. Поиски прототипа для такого персонажа приводят его в Мадурай, где заправляет темными делами и наводит на всех страх главарь местной банды Сету. Удалось ли Картику приблизиться к Сету, чтобы собрать необходимый материал и снять фильм? Смотрите... Вся эта гангстерская история имеет уникальный сложный сюжет и умело, а главное, неожиданно для зрителя, насквозь пронизана юмором... (Oxy)
Этот фильм - невероятно тонкая и сильная работа. Всё в нём выполнено на самом высоком уровне. Я горячо люблю такое кино - живое, динамичное, колкое.. Оно захватывает тебя мельчайшими деталями, прописанными характерами и жизнью в каждом кадре. Это история о двух совершенно разных людях, полностью противоположных характерах, которые, встретившись однажды, вызывают настоящую бурю в мирах друг друга. Ярость находит в себе доброту, а скромность открывает в себе хладнокровие. И ещё большой вопрос, в ком из них живёт настоящий зверь.. (Sima Kivi)
Всем приятного просмотра!
Доп. информация: Музыка - Сантош Нараянан. Оператор - Гавемик Ари. Фильм и команда его создателей уже получили множество различных наград, в том числе и две национальные: лучший актер второго плана - Бобби Симха, лучший редактор - Вивек Харшан.
Подробная информация о фильме.

Трейлеры и саундтреки [url=http://***/forum/viewtopic.php?t=4787373]Jigarthanda (Soundtrack)[/url]
[url=http://***/forum/viewtopic.php?t=4818286]Jigarthanda (Score)[/url]
Сэмпл
Качество видео: DVDRip
Формат видео: AVI
Видео: Xvid, 720x404, 16:9, 25 fps, 1 313 Kbps
Аудио: mp3, 44100 Hz, 128 kb/s, stereo
Формат субтитров: hardsub (неотключаемые)
MediaInfo
General
Complete name : F:\Torrent\Siddu-rt\HolodnoeSerdce.2014.DVDRip.rus-sub.avi
Format : AVI
Format/Info : Audio Video Interleave
Format profile : OpenDML
File size : 1.67 GiB
Duration : 2h 44mn
Overall bit rate : 1 454 Kbps
Writing application : MEncoder SVN-r33883(20110719-gcc4.5.2)
Writing library : MPlayer
Video
ID : 0
Format : MPEG-4 Visual
Format profile : Advanced Simple@L5
Format settings, BVOP : Yes
Format settings, QPel : No
Format settings, GMC : No warppoints
Format settings, Matrix : Default (H.263)
Codec ID : XVID
Codec ID/Hint : XviD
Duration : 2h 44mn
Bit rate : 1 313 Kbps
Width : 720 pixels
Height : 404 pixels
Display aspect ratio : 16:9
Original display aspect ratio : 16:9
Frame rate : 25.000 fps
Color space : YUV
Chroma subsampling : 4:2:0
Bit depth : 8 bits
Scan type : Progressive
Compression mode : Lossy
Bits/(Pixel*Frame) : 0.181
Stream size : 1.51 GiB (90%)
Writing library : XviD 1.2.1 (UTC 2008-12-04)
Audio
ID : 1
Format : MPEG Audio
Format version : Version 1
Format profile : Layer 3
Mode : Joint stereo
Mode extension : MS Stereo
Codec ID : 55
Codec ID/Hint : MP3
Duration : 2h 44mn
Bit rate mode : Constant
Bit rate : 128 Kbps
Channel(s) : 2 channels
Sampling rate : 44.1 KHz
Compression mode : Lossy
Delay relative to video : 40ms
Stream size : 151 MiB (9%)
Alignment : Aligned on interleaves
Interleave, duration : 26 ms (0.65 video frame)
Interleave, preload duration : 522 ms
Writing library : LAME3.98.4
Скриншот c названием фильма Скриншоты
Скачать

Скачать торрент! Холодное Сердце / Jigarthanda (Картик Суббарадж / Karthik Subbaraj) [2014, Индия, боевик, комедия, драма, DVDRip] Sub Rus

Как скачивать? · Что такое торрент? · Рейтинг и ограничения

Сайт не распространяет и не хранит электронные версии произведений, а лишь предоставляет доступ к создаваемому пользователями каталогу ссылок на торрент-файлы, которые содержат только списки хеш-сумм

[Профиль] [ЛС]
Показать сообщения:    
Ответить на тему

Текущее время: Сегодня 18:25

Часовой пояс: GMT + 4



Вы не можете начинать темы
Вы не можете отвечать на сообщения
Вы не можете редактировать свои сообщения
Вы не можете удалять свои сообщения
Вы не можете голосовать в опросах
Вы не можете прикреплять файлы к сообщениям
Вы не можете скачивать файлы