Радуга / Весельчак / Rangeela (Рам Гопал Варма / Ram Gopal Varma) [1995, Индия, Драма, мелодрама, комедия, DVDRip] MVO (Формат АВ) + DVO (Ren TV)

Ответить на тему
 
Автор Сообщение

user ®

Стаж: 12 лет

Сообщений: 15092

Пост Пост: #1 от 24-Апр-2015 15:00

[Цитировать]

Радуга / Весельчак / Rangeela
Страна: Индия
Жанр: Драма, мелодрама, комедия
Год выпуска: 1995
Продолжительность: 02:29:40
Перевод: Профессиональный (многоголосый закадровый) Формат АВ
Перевод 2: Профессиональный (двухголосый закадровый) Ren TV
Cубтитры: нет
Режиссер: Рам Гопал Варма / Ram Gopal Varma
В ролях: Джеки Шрофф, Аамир Кхан, Урмила Матондкар, Гульшан Гровер, Автар Гилл, Ачьют Потдар, Рима Лагу, Рам Мохан, Шамми, Шефали Шетти
Описание: Мили — танцовщица в хореографической группе. Ее заветная мечта — сняться в кино. Однажды, танцуя на берегу моря, она привлекает внимание популярнейшего киноактера Раджкамала. Он не только делает ей протекцию на участие в новом фильме, но и начинает ухаживать за ней.Казалось бы, все складывается наилучшим образом, но почему Мили испытывает такой душевный дискомфорт? Может быть, потому, что, добившись славы и богатства, она лишилась неизмеримо большего — любви Мунны, весельчака и балагура, для которого теперь в ее жизни не осталось места.
Доп. информация: Исходник DVD-9 (СПАСИБО! mir)
Сэмпл: http://multi-up.com/1045289
Качество видео: DVDRip
Формат видео: AVI
Видео: XviD build 50, 688x288 (2.39:1), 23.976 fps, 1127 kbps avg
Аудио: Rus MPEG Layer 3, 48 kHz, 2/0 (L,R) ch, 128.00 kbps avg - Формат АВ
Аудио 2: Rus MPEG Layer 3, 48 kHz, 2/0 (L,R) ch, 128.00 kbps avg - Ren TV
MediaInfo
General
Complete name : D:\Raduga.1995.XviD.DVDRip-Dego.avi
Format : AVI
Format/Info : Audio Video Interleave
File size : 1.46 GiB
Duration : 2h 29mn
Overall bit rate : 1 399 Kbps
Writing application : VirtualDubMod 1.5.10.2 (build 2540/release)
Writing library : VirtualDubMod build 2540/release
Video
ID : 0
Format : MPEG-4 Visual
Format profile : AdvancedSimple@L5
Format settings, BVOP : Yes
Format settings, QPel : No
Format settings, GMC : No warppoints
Format settings, Matrix : Custom
Codec ID : XVID
Codec ID/Hint : XviD
Duration : 2h 29mn
Bit rate : 1 129 Kbps
Width : 688 pixels
Height : 288 pixels
Display aspect ratio : 2.35
Frame rate : 23.976 fps
Resolution : 24 bits
Colorimetry : 4:2:0
Scan type : Progressive
Bits/(Pixel*Frame) : 0.238
Stream size : 1.18 GiB (81%)
Writing library : XviD 1.2.1 (UTC 2008-12-04)
Audio #1
ID : 1
Format : MPEG Audio
Format version : Version 1
Format profile : Layer 3
Codec ID : 55
Codec ID/Hint : MP3
Duration : 2h 29mn
Bit rate mode : Constant
Bit rate : 128 Kbps
Channel(s) : 2 channels
Sampling rate : 48.0 KHz
Resolution : 16 bits
Stream size : 137 MiB (9%)
Alignment : Aligned on interleaves
Interleave, duration : 42 ms (1.00 video frame)
Interleave, preload duration : 504 ms
Writing library : LAME3.98r
Encoding settings : -m j -V 4 -q 2 -lowpass 17 -b 128
Audio #2
ID : 2
Format : MPEG Audio
Format version : Version 1
Format profile : Layer 3
Codec ID : 55
Codec ID/Hint : MP3
Duration : 2h 29mn
Bit rate mode : Constant
Bit rate : 128 Kbps
Channel(s) : 2 channels
Sampling rate : 48.0 KHz
Resolution : 16 bits
Stream size : 137 MiB (9%)
Alignment : Aligned on interleaves
Interleave, duration : 42 ms (1.00 video frame)
Interleave, preload duration : 504 ms
Writing library : LAME3.98r
Encoding settings : -m j -V 4 -q 2 -lowpass 17 -b 128
Скриншоты
Скачать

Скачать торрент! Радуга / Весельчак / Rangeela (Рам Гопал Варма / Ram Gopal Varma) [1995, Индия, Драма, мелодрама, комедия, DVDRip] MVO (Формат АВ) + DVO (Ren TV)

Как скачивать? · Что такое торрент? · Рейтинг и ограничения

Сайт не распространяет и не хранит электронные версии произведений, а лишь предоставляет доступ к создаваемому пользователями каталогу ссылок на торрент-файлы, которые содержат только списки хеш-сумм

[Профиль] [ЛС]
Показать сообщения:    
Ответить на тему

Текущее время: Сегодня 12:47

Часовой пояс: GMT + 4



Вы не можете начинать темы
Вы не можете отвечать на сообщения
Вы не можете редактировать свои сообщения
Вы не можете удалять свои сообщения
Вы не можете голосовать в опросах
Вы не можете прикреплять файлы к сообщениям
Вы не можете скачивать файлы