Флинстоуны: Борцы каменного века / The Flintstones WWE: Stone Age Smackdown (Спайк Брандт / Spike Brandt, Тони Червоне / Tony Cervone) [2015, мультфильм, комедия, приключения, BDRip] Dvo

Ответить на тему
 
Автор Сообщение

user ®

Стаж: 11 лет

Сообщений: 15145

Пост Пост: #1 от 19-Апр-2015 20:30

[Цитировать]

Флинстоуны: Борцы каменного века / The Flintstones WWE: Stone Age Smackdown- Страна: США
Жанр: мультфильм, комедия, приключения, семейный
Год выпуска: 2015
Продолжительность: 00:51:41
Перевод: Профессиональный (Двухголосый закадровый)
Русские субтитры: Нет-Режиссер: Спайк Брандт / Spike Brandt, Тони Червоне / Tony Cervone-Описание: Действие, по традиции, происходит в родном городке Флинстоунов, Бедроке. В одно прекрасное утро Фред просыпается в постели с любимой женой и мыслями о том, что было бы неплохо попросить у начальства повышения, а заодно позаботиться о семейном отпуске. Преисполненный надежд, Фред отправляется на стройку, но череда нелепых случайностей приводит к тому, что вместо долгожданной прибавки Флинстоун получает... ничего. Расстроенный Фред решает честно признаться Вильме, что отпуска не будет, но когда видит, что она уже приготовилась к поездке и даже купила эффектный купальник, то понимает, что просто не имеет права подводить семью. Теперь Фред должен заработать на отпуск, чего бы это ему ни стоило. И он находит весьма оригинальный выход из ситуации.-Рейтинг:
-Мировая премьера: 17 марта 2015-Релиз: -Семпл.avi-Качество: BDRip [The Flintstones & WWE Stone Age Smackdown.2015.BDRemux 1080p]
Формат: AVI
Видео: 720x400 (1.80:1), 23.976 fps, XviD build 65 ~1810 kbps avg, 0.26 bit/pixel
Аудио: 48 kHz, AC3 Dolby Digital, 2/0 (L,R) ch, ~192 kbps
Субтитры: Отсутствуют-

MI
General
Complete name : C:\Users\Ya\Desktop\The Flintstones & WWE Stone Age Smackdown.2015.BDRemux 1080p.avi
Format : AVI
Format/Info : Audio Video Interleave
File size : 744 MiB
Duration : 51mn 41s
Overall bit rate : 2 012 Kbps
Writing application : VirtualDubMod 1.5.10.3 | www.virtualdub-fr.org || (build 2550/release)
Writing library : VirtualDubMod build 2550/release
Video
ID : 0
Format : MPEG-4 Visual
Format profile : Advanced Simple@L5
Format settings, BVOP : 2
Format settings, QPel : No
Format settings, GMC : No warppoints
Format settings, Matrix : Custom
Codec ID : XVID
Codec ID/Hint : XviD
Duration : 51mn 41s
Bit rate : 1 810 Kbps
Width : 720 pixels
Height : 400 pixels
Display aspect ratio : 16:9
Frame rate : 23.976 fps
Color space : YUV
Chroma subsampling : 4:2:0
Bit depth : 8 bits
Scan type : Progressive
Compression mode : Lossy
Bits/(Pixel*Frame) : 0.262
Stream size : 669 MiB (90%)
Writing library : XviD 65
Audio
ID : 1
Format : AC-3
Format/Info : Audio Coding 3
Mode extension : CM (complete main)
Codec ID : 2000
Duration : 51mn 41s
Bit rate mode : Constant
Bit rate : 192 Kbps
Channel(s) : 2 channels
Channel positions : Front: L R
Sampling rate : 48.0 KHz
Bit depth : 16 bits
Compression mode : Lossy
Stream size : 71.0 MiB (10%)
Alignment : Split accross interleaves
Interleave, duration : 42 ms (1.00 video frame)
Interleave, preload duration : 500 ms
[url=http://***/forum/tracker.php?f=1900,208,209,2258,2343,2365,4,484,521,539,822,930&nm=The%20Flintstones%20WWE%20Stone%20Age%20Smackdown]Все раздачи мультфильма![/url]
Скачать

Скачать торрент! Флинстоуны: Борцы каменного века / The Flintstones WWE: Stone Age Smackdown (Спайк Брандт / Spike Brandt, Тони Червоне / Tony Cervone) [2015, мультфильм, комедия, приключения, BDRip] Dvo

Как скачивать? · Что такое торрент? · Рейтинг и ограничения

Сайт не распространяет и не хранит электронные версии произведений, а лишь предоставляет доступ к создаваемому пользователями каталогу ссылок на торрент-файлы, которые содержат только списки хеш-сумм

[Профиль] [ЛС]
Показать сообщения:    
Ответить на тему

Текущее время: Сегодня 17:59

Часовой пояс: GMT + 4



Вы не можете начинать темы
Вы не можете отвечать на сообщения
Вы не можете редактировать свои сообщения
Вы не можете удалять свои сообщения
Вы не можете голосовать в опросах
Вы не можете прикреплять файлы к сообщениям
Вы не можете скачивать файлы