Чёрный пояс / Kuro-obi / Black Belt (Сюнъити Нагасаки / Shunichi Nagasaki) [2007, Япония, боевик, драма, спорт, DVDRip] MVO

Ответить на тему
 
Автор Сообщение

user ®

Стаж: 13 лет

Сообщений: 15071

Пост Пост: #1 от 10-Апр-2015 01:09

[Цитировать]

Чёрный пояс / Kuro-obi / Black Belt- -Страна: Япония
Жанр: боевик, драма, спорт
Год выпуска: 2007
Продолжительность: 01:31:36-Перевод: Профессиональный (многоголосый закадровый)-Cубтитры: нет
Оригинальная аудиодорожка: нет
Режиссер: Сюнъити Нагасаки / Shunichi Nagasaki
В ролях: Акихито Йаги, Тацуя Нака, Юджи Сузуки, Кэндзи Анан, Араши Фукасава, Хакурю, Рей Ханаока, Ацуси Хида, Ю Камио, Такаясу Комия...
Описание: Шел 1932 год. Умирая, старый мастер каратэ, оставляет своих немногочисленных учеников. Один из них Тайкан, отбросив наставления учителя — использовать каратэ для защиты и самосовершенствования, становится инструктором императорской военной полиции. Он помогает командиру прибирать к рукам другие додзе, выпивает, путается с женщинами.
Другой ученик Гирю, старается идти путем указанным учителем, но жизнь заставляет его поступиться принципами, встав на защиту семьи, которая спасла ему жизнь. Этим своим поступком он навлекает гнев игорной мафии и командира военной полиции. А значит Гирю и Тайкану суждено встретится в поединке, олицетворяющем борьбу добра со злом и неясно чья возьмет верх…
Релиз от -
Сэмпл: http://multi-up.com/1042883
Качество видео: DVDRip
Формат видео: AVI
Видео: MPEG-4 Visual at 1004 Кбит/сек; 688 x 384 (1.792) at 25.000 fps
Аудио: MPEG Audio at 128 Кбит/сек; 2 канала, 48,0 КГц
Автор -
MediaInfo
Общее
Полное имя : D:\Фильмы\Азиатские\Черный пояс\Black Belt.2007.DVDRip.XviD.745MB. rip by [Assassin's Creed].avi
Формат : AVI
Формат/Информация : Audio Video Interleave
Размер файла : 748 Мбайт
Продолжительность : 1 ч. 31 м.
Общий поток : 1141 Кбит/сек
Программа кодирования : VirtualDubMod 1.5.10.3 | www.virtualdub-fr.org || (build 2550/release)
Библиотека кодирования : VirtualDubMod build 2550/release
Видео
Идентификатор : 0
Формат : MPEG-4 Visual
Профиль формата : Advanced Simple@L5
Параметр BVOP формата : 1
Параметр QPel формата : Нет
Параметр GMC формата : Без точки перехода
Параметр матрицы формата : Default (MPEG)
Идентификатор кодека : XVID
Идентификатор кодека/Подсказка : XviD
Продолжительность : 1 ч. 31 м.
Битрейт : 1004 Кбит/сек
Ширина : 688 пикселей
Высота : 384 пикселя
Соотношение сторон : 16:9
Частота кадров : 25,000 кадров/сек
Цветовое пространство : YUV
Субдискретизация насыщенности : 4:2:0
Битовая глубина : 8 бит
Тип развёртки : Прогрессивная
Метод сжатия : С потерями
Бит/(Пиксели*Кадры) : 0.152
Размер потока : 658 Мбайт (88%)
Библиотека кодирования : XviD 1.2.1 (UTC 2008-12-04)
Аудио
Идентификатор : 1
Формат : MPEG Audio
Версия формата : Version 1
Профиль формата : Layer 3
Идентификатор кодека : 55
Идентификатор кодека/Подсказка : MP3
Продолжительность : 1 ч. 31 м.
Вид битрейта : Постоянный
Битрейт : 128 Кбит/сек
Каналы : 2 канала
Частота : 48,0 КГц
Метод сжатия : С потерями
Размер потока : 83,9 Мбайт (11%)
Выравнивание : Соединение по промежуткам
Продолжительность промежутка : 40 мс. (1,00 видеокадр)
Время предзагрузки промежутка : 504 мс.
Библиотека кодирования : LAME3.99r
Настройки программы : -m s -V 4 -q 2 -lowpass 17 -b 128
Скриншот c названием фильма Скриншоты
Скачать

Скачать торрент! Чёрный пояс / Kuro-obi / Black Belt (Сюнъити Нагасаки / Shunichi Nagasaki) [2007, Япония, боевик, драма, спорт, DVDRip] MVO

Как скачивать? · Что такое торрент? · Рейтинг и ограничения

Сайт не распространяет и не хранит электронные версии произведений, а лишь предоставляет доступ к создаваемому пользователями каталогу ссылок на торрент-файлы, которые содержат только списки хеш-сумм

[Профиль] [ЛС]
Показать сообщения:    
Ответить на тему

Текущее время: Сегодня 16:48

Часовой пояс: GMT + 4



Вы не можете начинать темы
Вы не можете отвечать на сообщения
Вы не можете редактировать свои сообщения
Вы не можете удалять свои сообщения
Вы не можете голосовать в опросах
Вы не можете прикреплять файлы к сообщениям
Вы не можете скачивать файлы