Владелец клуба "Ангара" / Janasheen (Фероз Кхан / Feroz Khan) [2003, Индия, боевик, драма, DVDRip] Sub Rus

Ответить на тему
 
Автор Сообщение

user ®

Стаж: 12 лет

Сообщений: 15092

Пост Пост: #1 от 08-Апр-2015 15:03

[Цитировать]

Владелец клуба "Ангара" / Janasheen
Страна: Индия
Жанр: боевик, драма
Год выпуска: 2003
Продолжительность: 02:41:49
Перевод: Субтитры Анджелина и aredhel
Cубтитры: русские
Режиссер: Фероз Кхан / Feroz Khan
В ролях: Фероз Кхан, Фардин Кхан, Селина Джейтли, Пинки Харвани, Мангал Дхиллон, Кашмира Шах, Арчана Пуран Сингх, Яш Тонк, Хэрш Чхая, Шива Риндани
Описание: Вирендра (Фероз Кхан), владелец ночного клуба "Ангара", отправляет на лечение в Австралию свою тяжело больную жену и сына Лаки (Фардин Кхан). Прошло 12 лет. Жена умерла, а сын стал профессиональным мотогонщиком, обосновался в Австралии и не хочет возвращаться на родину. Вместе с певицей Джессикой (С.Джейтли) Вирендра едет в Австралию, чтобы разыскать своего сына - единственного наследника. Тем временем босс мафии пытается поставить клуб под свой контроль.
Доп. информация:
Перевод субтитров: Анджелина и aredhel (Спасибо!)
Сэмпл: http://multi-up.com/1042597
Качество видео: DVDRip
Формат видео: AVI
Видео: XviD MPEG-4, 624x272 (2.29:1), 29.970 fps, 1199 kbps avg
Аудио: Hindi MPEG Layer 3, 48 kHz, 2/0 (L,R) ch, 160.00 kbps avg
Формат субтитров: hardsub (неотключаемые)
MediaInfo
General
Complete name : F:\Vladelec.kluba.Angara.2003.DVDRip.XviD.BwTorrents.avi
Format : AVI
Format/Info : Audio Video Interleave
File size : 1.55 GiB
Duration : 2h 41mn
Overall bit rate : 1 371 Kbps
Writing application : VirtualDubMod 1.5.10.2 (build 2540/release)
Writing library : VirtualDubMod build 2540/release
Video
ID : 0
Format : MPEG-4 Visual
Format profile : AdvancedSimple@L5
Format settings, BVOP : Yes
Format settings, QPel : No
Format settings, GMC : No warppoints
Format settings, Matrix : Default (H.263)
Muxing mode : Packed bitstream
Codec ID : XVID
Codec ID/Hint : XviD
Duration : 2h 41mn
Bit rate : 1 199 Kbps
Width : 624 pixels
Height : 272 pixels
Display aspect ratio : 2.25
Frame rate : 29.970 fps
Resolution : 24 bits
Colorimetry : 4:2:0
Scan type : Progressive
Bits/(Pixel*Frame) : 0.236
Stream size : 1.36 GiB (87%)
Writing library : XviD 1.2.1 (UTC 2008-12-04)
Audio
ID : 1
Format : MPEG Audio
Format version : Version 1
Format profile : Layer 3
Codec ID : 55
Codec ID/Hint : MP3
Duration : 2h 41mn
Bit rate mode : Constant
Bit rate : 160 Kbps
Channel(s) : 2 channels
Sampling rate : 48.0 KHz
Resolution : 16 bits
Stream size : 185 MiB (12%)
Alignment : Split accross interleaves
Interleave, duration : 33 ms (1.00 video frame)
Interleave, preload duration : 500 ms
Скриншоты
Скачать

Скачать торрент! Владелец клуба "Ангара" / Janasheen (Фероз Кхан / Feroz Khan) [2003, Индия, боевик, драма, DVDRip] Sub Rus

Как скачивать? · Что такое торрент? · Рейтинг и ограничения

Сайт не распространяет и не хранит электронные версии произведений, а лишь предоставляет доступ к создаваемому пользователями каталогу ссылок на торрент-файлы, которые содержат только списки хеш-сумм

[Профиль] [ЛС]
Показать сообщения:    
Ответить на тему

Текущее время: Сегодня 11:09

Часовой пояс: GMT + 4



Вы не можете начинать темы
Вы не можете отвечать на сообщения
Вы не можете редактировать свои сообщения
Вы не можете удалять свои сообщения
Вы не можете голосовать в опросах
Вы не можете прикреплять файлы к сообщениям
Вы не можете скачивать файлы