Жажда / Мир Канако / Kawaki / The World of Kanako (Тэцуя Накасима / Tetsuya Nakashima) [2014, драма, криминал, детектив, HDRip] DVO (DeadSno & den904) + original Jap + Sub (rus, eng)

Ответить на тему
 
Автор Сообщение

user ®

Стаж: 13 лет

Сообщений: 15071

Пост Пост: #1 от 05-Апр-2015 12:39

[Цитировать]

Жажда / Мир Канако / Kawaki / The World of Kanako- -Страна: Япония
Жанр: драма, криминал, детектив
Год выпуска: 2014
Продолжительность:-Перевод: Любительский (двухголосый закадровый) [DeadSno & den904] - по переводу [akira9]-Cубтитры: русские [akira9], английские [отдельно]
Оригинальная аудиодорожка: японский
Режиссер: Тэцуя Накасима / Tetsuya Nakashima
В ролях: Кодзи Якусё, Nana Komatsu, Сатоси Цумабуки, Дзё Одагири, Фуми Никайдо, Аи Хашимото, Дзюн Кунимура, Hiroya Shimizu, Мики Накатани, Мунэтака Аоки...
Описание: Красавица и умница Канако внезапно исчезает без следа. Отец девочки, бывший детектив Фудзисима Акихиро, чтобы найти свою дочь, начинает тщательное расследование ее жизни. Фудзисима — одинокий человек, собственные действия которого привели к распаду семьи, но, когда он продолжает свое расследование, то сталкивается с серией шокирующих откровений. Оказывается, Канако — далеко не ангел, которого все видели в ней…
Релиз от - &
Сэмпл: http://multi-up.com/1042117
Качество видео: HDRip
Формат видео: AVI
Видео: MPEG-4 Visual at 1722 Кбит/сек; 720 x 304 (2.368) at 23.976 fps
Аудио: AC-3 at 448 Кбит/сек; 6 каналов, 48,0 КГц [DVO]
Аудио: AC-3 at 448 Кбит/сек; 6 каналов, 48,0 КГц [Eng]
Автор -
MediaInfo
Общее
Полное имя : D:\Фильмы\Азиатские\Мир Канако\The World of Kanako.2014.HDRip.XviD.2200MB. rip by [Assassin's Creed]\The World of Kanako.2014.HDRip.XviD.2200MB. rip by [Assassin's Creed].avi
Формат : AVI
Формат/Информация : Audio Video Interleave
Профиль формата : OpenDML
Размер файла : 2,19 Гбайт
Продолжительность : 1 ч. 58 м.
Общий поток : 2635 Кбит/сек
Программа кодирования : VirtualDubMod 1.5.10.3 | www.virtualdub-fr.org || (build 2550/release)
Библиотека кодирования : VirtualDubMod build 2550/release
Видео
Идентификатор : 0
Формат : MPEG-4 Visual
Профиль формата : Advanced Simple@L5
Параметр BVOP формата : 1
Параметр QPel формата : Нет
Параметр GMC формата : Без точки перехода
Параметр матрицы формата : Default (MPEG)
Идентификатор кодека : XVID
Идентификатор кодека/Подсказка : XviD
Продолжительность : 1 ч. 58 м.
Битрейт : 1722 Кбит/сек
Ширина : 720 пикселей
Высота : 304 пикселя
Соотношение сторон : 2,35:1
Частота кадров : 23,976 кадра/сек
Цветовое пространство : YUV
Субдискретизация насыщенности : 4:2:0
Битовая глубина : 8 бит
Тип развёртки : Прогрессивная
Метод сжатия : С потерями
Бит/(Пиксели*Кадры) : 0.328
Размер потока : 1,43 Гбайт (65%)
Библиотека кодирования : XviD 1.2.1 (UTC 2008-12-04)
Аудио #1
Идентификатор : 1
Формат : AC-3
Формат/Информация : Audio Coding 3
Расширение режима : CM (complete main)
Параметр Endianness формата : Big
Идентификатор кодека : 2000
Продолжительность : 1 ч. 58 м.
Вид битрейта : Постоянный
Битрейт : 448 Кбит/сек
Каналы : 6 каналов
Расположение каналов : Front: L C R, Side: L R, LFE
Частота : 48,0 КГц
Битовая глубина : 16 бит
Метод сжатия : С потерями
Размер потока : 381 Мбайт (17%)
Выравнивание : Разделение по промежуткам
Продолжительность промежутка : 42 мс. (1,00 видеокадр)
Время предзагрузки промежутка : 500 мс.
Аудио #2
Идентификатор : 2
Формат : AC-3
Формат/Информация : Audio Coding 3
Расширение режима : CM (complete main)
Параметр Endianness формата : Big
Идентификатор кодека : 2000
Продолжительность : 1 ч. 58 м.
Вид битрейта : Постоянный
Битрейт : 448 Кбит/сек
Каналы : 6 каналов
Расположение каналов : Front: L C R, Side: L R, LFE
Частота : 48,0 КГц
Битовая глубина : 16 бит
Метод сжатия : С потерями
Размер потока : 381 Мбайт (17%)
Выравнивание : Разделение по промежуткам
Продолжительность промежутка : 42 мс. (1,00 видеокадр)
Время предзагрузки промежутка : 500 мс.
Общее
Полное имя : D:\Фильмы\Азиатские\Мир Канако\The World of Kanako.2014.HDRip.XviD.2200MB. rip by [Assassin's Creed]\The World of Kanako.2014.HDRip.XviD.2200MB. rip by [Assassin's Creed].eng.srt
Формат : SubRip
Размер файла : 79,6 Кбайт
Текст
Формат : SubRip
Метод сжатия : Без потерь
Общее
Полное имя : D:\Фильмы\Азиатские\Мир Канако\The World of Kanako.2014.HDRip.XviD.2200MB. rip by [Assassin's Creed]\The World of Kanako.2014.HDRip.XviD.2200MB. rip by [Assassin's Creed].rus.srt
Формат : SubRip
Размер файла : 273 байт
Текст
Формат : SubRip
Метод сжатия : Без потерь
Скриншот c названием фильма Скриншоты
Скачать

Скачать торрент! Жажда / Мир Канако / Kawaki / The World of Kanako (Тэцуя Накасима / Tetsuya Nakashima) [2014, драма, криминал, детектив, HDRip] DVO (DeadSno & den904) + original Jap + Sub (rus, eng)

Как скачивать? · Что такое торрент? · Рейтинг и ограничения

Сайт не распространяет и не хранит электронные версии произведений, а лишь предоставляет доступ к создаваемому пользователями каталогу ссылок на торрент-файлы, которые содержат только списки хеш-сумм

[Профиль] [ЛС]
Показать сообщения:    
Ответить на тему

Текущее время: Сегодня 16:58

Часовой пояс: GMT + 4



Вы не можете начинать темы
Вы не можете отвечать на сообщения
Вы не можете редактировать свои сообщения
Вы не можете удалять свои сообщения
Вы не можете голосовать в опросах
Вы не можете прикреплять файлы к сообщениям
Вы не можете скачивать файлы