Лучшие друзья / Друзья по несчастью / Best Friends / Xin hua lu fang (Нин Хао / Ning Hao) [2014, Китай, Гонконг, мелодрама, комедия, WEB-DLRip] VO (den904)

Ответить на тему
 
Автор Сообщение

user ®

Стаж: 13 лет

Сообщений: 15071

Пост Пост: #1 от 04-Апр-2015 03:24

[Цитировать]

Лучшие друзья / Друзья по несчастью / Best Friends / Xin hua lu fang- -Страна: Китай, Гонконг
Жанр: мелодрама, комедия
Год выпуска: 2014
Продолжительность: 01:53:10-Перевод: Одноголосый закадровый [den904]-Cубтитры: русские, английские [вшитые]
Оригинальная аудиодорожка: нет
Режиссер: Нин Хао / Ning Hao
В ролях: Бо Хуан, Сюй Чжэн, Цюань Юань, Чжоу Дунъюй, Юй Ся, Тао Го, Ивэй Лау, Нин Хао, Сяоцзюнь Юе...
Описание: Гэн Хао пребывает в горе. Его жена изменила ему. Пережив позорный развод, Гэн топит свое горе в спиртном и в итоге попадает в больницу. Его лучший друг Хао И, желая помочь Гэну выбраться из депрессии, придумывает гениальную идею, а, именно, «поездку-охоту» на девочек. Друзья отправляются в путь из Пекина в Шангри Ла, и далее в Дали. В поездке они постоянно попадают в самые диковинные и нелепые ситуации…
Релиз от - &
Сэмпл: http://multi-up.com/1041863
Качество видео: WEB-DLRip
Формат видео: AVI
Видео: MPEG-4 Visual at 1650 Кбит/сек; 720 x 304 (2.368) at 25.000 fps
Аудио: AC-3 at 192 Кбит/сек; 2 канала, 48,0 КГц
Автор -
MediaInfo
Общее
Полное имя : D:\Фильмы\Азиатские\Лучшие друзья\Breakup Buddies.2014.WEB-DLRip.1400MB. rip by [Assasssn's Creed].avi
Формат : AVI
Формат/Информация : Audio Video Interleave
Размер файла : 1,46 Гбайт
Продолжительность : 1 ч. 53 м.
Общий поток : 1852 Кбит/сек
Программа кодирования : VirtualDubMod 1.5.10.3 | www.virtualdub-fr.org || (build 2550/release)
Библиотека кодирования : VirtualDubMod build 2550/release
Видео
Идентификатор : 0
Формат : MPEG-4 Visual
Профиль формата : Advanced Simple@L5
Параметр BVOP формата : 1
Параметр QPel формата : Нет
Параметр GMC формата : Без точки перехода
Параметр матрицы формата : Default (MPEG)
Идентификатор кодека : XVID
Идентификатор кодека/Подсказка : XviD
Продолжительность : 1 ч. 53 м.
Битрейт : 1650 Кбит/сек
Ширина : 720 пикселей
Высота : 304 пикселя
Соотношение сторон : 2,35:1
Частота кадров : 25,000 кадров/сек
Цветовое пространство : YUV
Субдискретизация насыщенности : 4:2:0
Битовая глубина : 8 бит
Тип развёртки : Прогрессивная
Метод сжатия : С потерями
Бит/(Пиксели*Кадры) : 0.302
Размер потока : 1,30 Гбайт (89%)
Библиотека кодирования : XviD 1.2.1 (UTC 2008-12-04)
Аудио
Идентификатор : 1
Формат : AC-3
Формат/Информация : Audio Coding 3
Расширение режима : CM (complete main)
Параметр Endianness формата : Big
Идентификатор кодека : 2000
Продолжительность : 1 ч. 53 м.
Вид битрейта : Постоянный
Битрейт : 192 Кбит/сек
Каналы : 2 канала
Расположение каналов : Front: L R
Частота : 48,0 КГц
Битовая глубина : 16 бит
Метод сжатия : С потерями
Размер потока : 155 Мбайт (10%)
Выравнивание : Разделение по промежуткам
Продолжительность промежутка : 40 мс. (1,00 видеокадр)
Время предзагрузки промежутка : 500 мс.
Скриншот c названием фильма Скриншоты
Скачать

Скачать торрент! Лучшие друзья / Друзья по несчастью / Best Friends / Xin hua lu fang (Нин Хао / Ning Hao) [2014, Китай, Гонконг, мелодрама, комедия, WEB-DLRip] VO (den904)

Как скачивать? · Что такое торрент? · Рейтинг и ограничения

Сайт не распространяет и не хранит электронные версии произведений, а лишь предоставляет доступ к создаваемому пользователями каталогу ссылок на торрент-файлы, которые содержат только списки хеш-сумм

[Профиль] [ЛС]
Показать сообщения:    
Ответить на тему

Текущее время: Сегодня 21:24

Часовой пояс: GMT + 4



Вы не можете начинать темы
Вы не можете отвечать на сообщения
Вы не можете редактировать свои сообщения
Вы не можете удалять свои сообщения
Вы не можете голосовать в опросах
Вы не можете прикреплять файлы к сообщениям
Вы не можете скачивать файлы