Панихида по Рэнсому Прайду / The Last Rites of Ransom Pride (Тиллер Расселл / Tiller Russell) [2009, Канада, драма, вестерн, HDRip] DVO + original (eng)

Ответить на тему
 
Автор Сообщение

user ®

Стаж: 7 лет 7 месяцев

Сообщений: 20008

Пост Пост: #1 от 21-Окт-2010 23:15

[Цитировать]

Панихида по Рэнсому Прайду / The Last Rites of Ransom Pride
Страна: Канада
Студия: Calgary, Alberta
Жанр: драма, вестерн
Год выпуска: 2009
Продолжительность: 01:22:09
Перевод: Любительский (двухголосый)
Субтитры: нет
Оригинальная аудиодорожка: Английский
Режиссер: Тиллер Расселл / Tiller Russell
В ролях: Лиззи Каплан, Коте Де Пабло, Скотт Спидман, Джейсон Пристли, Питер Динклэйдж, Крис Кристофферсон, Джон Фостер, Дуайт Йоакам, У. Эрл Браун, Альфонсо Квиджада...
Описание: История разворачивается в 1910 году и рассказывает о женщине, пытающейся доставить своего возлюбленного — убитого преступника — домой в Техас для погребения.

Бюджет: $8 000 000

Тип релиза: HDRip, источник: The.Last.Rites.of.Ransom.Pride.2009.1080p.BluRay.x264-aAF
Контейнер: AVI
Видео: 720x400 (16:9), 23.976 fps, XVID ~2078 kbps avg, 0.301 bit/pixel
Аудио : Русский 48 kHz, AC3, 6 ch, 448.00 kbps Constant
Аудио 2: Английский 48 kHz, AC3, 6 ch, 448.00 kbps Constant (отдельным файлом)

MediaInfo

General
Complete name : Panihida.po.Rensomu.Praidu.2009.L2.HDRip.avi
Format : AVI
Format/Info : Audio Video Interleave
File size : 1.46 GiB
Duration : 1h 22mn
Overall bit rate : 2 535 Kbps
Writing application : VirtualDubModRus 1.5.10.2 (build 2542/release)
Writing library : VirtualDubMod build 2542/release
Video
ID : 0
Format : MPEG-4 Visual
Format profile : Advanced Simple@L5
Format settings, BVOP : Yes
Format settings, QPel : No
Format settings, GMC : No warppoints
Format settings, Matrix : Custom
Codec ID : XVID
Codec ID/Hint : XviD
Duration : 1h 22mn
Bit rate : 2 078 Kbps
Width : 720 pixels
Height : 400 pixels
Display aspect ratio : 16:9
Frame rate : 23.976 fps
Color space : YUV
Chroma subsampling : 4:2:0
Bit depth : 8 bits
Scan type : Progressive
Bits/(Pixel*Frame) : 0.301
Stream size : 1.19 GiB (82%)
Writing library : XviD 1.2.1 (UTC 2008-12-04)
Audio
ID : 1
Format : AC-3
Format/Info : Audio Coding 3
Mode extension : CM (complete main)
Codec ID : 2000
Duration : 1h 22mn
Bit rate mode : Constant
Bit rate : 448 Kbps
Channel(s) : 6 channels
Channel positions : Front: L C R, Side: L R, LFE
Sampling rate : 48.0 KHz
Stream size : 263 MiB (18%)
Alignment : Split accross interleaves
Interleave, duration : 42 ms (1.00 video frame)
Interleave, preload duration : 500 ms

Скриншот с названием

Скриншоты

Скачать

Скачать торрент!

Как скачивать? · Что такое торрент? · Рейтинг и ограничения

Сайт не распространяет и не хранит электронные версии произведений, а лишь предоставляет доступ к создаваемому пользователями каталогу ссылок на торрент-файлы, которые содержат только списки хеш-сумм

[Профиль] [ЛС]

Пост Пост: #2 от 22-Окт-2010 01:04 (спустя 1 час 48 минут)

Топик был перенесен из форума Фильмы в форум Новинки

Засранец
 

Засранец

Стаж: 6 лет 6 месяцев

Сообщений: 151

Откуда: Калининградская область

Пост Пост: #3 от 22-Окт-2010 01:20 (спустя 2 часа 4 минуты)

[Цитировать]

Исправил год выпуска 2009!!!!
[Профиль] [ЛС]

Пост Пост: #4 от 22-Окт-2010 01:21 (спустя 1 минута)

Топик был перенесен из форума Новинки в форум Фильмы

Засранец
 

bltina

Стаж: 6 лет

Сообщений: 2

Пост Пост: #5 от 22-Ноя-2010 00:22 (спустя 30 дней)

[Цитировать]

Большое спасибо!

_________________
anatol
[Профиль] [ЛС]
Показать сообщения:    
Ответить на тему

Текущее время: Сегодня 02:12

Часовой пояс: GMT + 4



Вы не можете начинать темы
Вы не можете отвечать на сообщения
Вы не можете редактировать свои сообщения
Вы не можете удалять свои сообщения
Вы не можете голосовать в опросах
Вы не можете прикреплять файлы к сообщениям
Вы не можете скачивать файлы