Буроба (Оксана Холодова) [2012, мультфильм, DVDScreener]

Ответить на тему
 
Автор Сообщение

user ®

Стаж: 7 лет 7 месяцев

Сообщений: 20008

Пост Пост: #1 от 26-Мар-2015 16:33

[Цитировать]

Буроба
Страна: РФ
Жанр: мультфильм
Продолжительность: 00:13:04
Год выпуска: 2012
Русские субтитры: нет
Режиссёр: Оксана Холодова
Описание: История про девочку в волшебную страну попавшую, и чуть там не пропавшую...
Доп. информация: Открытый фестиваль анимационного кино, Суздаль (Россия), 2013
Московский международный кинофестиваль (ММКФ), Москва (Россия), 2013
Фестиваль российского кино 'Окно в Европу', Выборг (Россия), 2013
Фестиваль отечественного кино ''Московская премьера'', Москва (Россия), 2013
Festival des Films de Russie et d'Ailleurs, Женева - Лозанна (Швейцария), 2013
Качество: DVDScreener
Формат: AVI
Видео: DIVX, 720x504, 25fps, 1434kbps
Аудио: MPEG Layer 3, 48kHz, 2ch, 192kbps
Субтитры: отсутствуют
Подробные технические данные
Полное имя : Буроба.aviФормат : AVIФормат/Информация : Audio Video InterleaveРазмер файла : 153 МбайтПродолжительность : 13 м.Общий поток : 1636 Кбит/секПрограмма кодирования : VirtualDubMod 1.5.10.3 | www.virtualdub-fr.org || (build 2550/release)Библиотека кодирования : VirtualDubMod build 2550/release
ВидеоИдентификатор : 0Формат : MPEG-4 VisualПрофиль формата : Advanced Simple@L5Параметр BVOP формата : 1Параметр QPel формата : НетПараметр GMC формата : Без точки переходаПараметр матрицы формата : Default (H.263)Идентификатор кодека : DIVXИдентификатор кодека/Информация : Project MayoИдентификатор кодека/Подсказка : DivX 4Продолжительность : 13 м.Битрейт : 1434 Кбит/секШирина : 720 пикселейВысота : 504 пикселяСоотношение сторон : 1,429Частота кадров : 25,000 кадров/секЦветовое пространство : YUVСубдискретизация насыщенности : 4:2:0Битовая глубина : 8 битТип развёртки : ПрогрессивнаяМетод сжатия : С потерямиБит/(Пиксели*Кадры) : 0.158Размер потока : 134 Мбайт (88%)Библиотека кодирования : XviD 1.2.1 (UTC 2008-12-04)
АудиоИдентификатор : 1Формат : MPEG AudioВерсия формата : Version 1Профиль формата : Layer 3Идентификатор кодека : 55Идентификатор кодека/Подсказка : MP3Продолжительность : 13 м.Вид битрейта : ПостоянныйБитрейт : 192 Кбит/секКаналы : 2 каналаЧастота : 48,0 КГцМетод сжатия : С потерямиРазмер потока : 17,9 Мбайт (12%)Выравнивание : Соединение по промежуткамПродолжительность промежутка : 40 мс. (1,00 видеокадр)Время предзагрузки промежутка : 504 мс.Библиотека кодирования : LAME3.99rНастройки программы : -m s -V 4 -q 0 -lowpass 18.6 -b 192
Скриншоты
Скачать

Скачать торрент!

Как скачивать? · Что такое торрент? · Рейтинг и ограничения

Сайт не распространяет и не хранит электронные версии произведений, а лишь предоставляет доступ к создаваемому пользователями каталогу ссылок на торрент-файлы, которые содержат только списки хеш-сумм

[Профиль] [ЛС]
Показать сообщения:    
Ответить на тему

Текущее время: Сегодня 07:59

Часовой пояс: GMT + 4



Вы не можете начинать темы
Вы не можете отвечать на сообщения
Вы не можете редактировать свои сообщения
Вы не можете удалять свои сообщения
Вы не можете голосовать в опросах
Вы не можете прикреплять файлы к сообщениям
Вы не можете скачивать файлы