Честный хлеб / Izzat Ki Roti (K. Pappu / K. Паппу) [1993, Индия, Мелодрама, DVDRip] Sub Rus

Ответить на тему
 
Автор Сообщение

user ®

Стаж: 12 лет

Сообщений: 15092

Пост Пост: #1 от 25-Мар-2015 15:30

[Цитировать]

Честный хлеб / Izzat Ki Roti
Страна: Индия
Жанр: Мелодрама
Год выпуска: 1993
Продолжительность: 02:20:56
Перевод: Субтитры (ElReal)
Cубтитры: русские
Оригинальная аудиодорожка: хинди
Режиссер: K. Pappu / K. Паппу
В ролях: Санни Деол, Риши Капур, Джухи Чавла, Фарха Нааз, Прем Чопра, Анупам Кхер, Алок Натх, Кулбушан Кхарбанда, Тануджа, Рам Мохан, Урмила Бхатт, Дан Дханоа
Описание: Двое водителей грузовиков, один честный, другой контрабандист, получают свои законные награды. Честный Виджай Мальхотра (Кулбушан Кхарбанда) получает грузовик, а Вирендра Пратап "Виру" (Прем Чопра) отправляется в тюрьму. Прошли годы, и после смерти Виджая его транспортную компанию унаследуют сыновья: родной Джай (Санни Деол) и приемный Кришна (Риши Капур), сын Виру. Виру затаил злобу на семью Мальхотры и, выйдя из тюрьмы, решил им навредить. Как и что было дальше... смотрите фильм
Доп. информация:
Перевод и редакция субтитров : ElReal (Спасибо!)
Сэмпл: http://multi-up.com/1040183
Качество видео: DVDRip
Формат видео: AVI
Видео: XviD build 50, 720x376 (1.91:1), 29.970 fps, 1623 kbps avg
Аудио: Hindi AC3 Dolby Digital, 48 kHz, 3/2 (L,C,R,l,r) + LFE ch, 448.00 kbps
Формат субтитров: hardsub (неотключаемые)
MediaInfo
General
Complete name : F:\Chestnyj.hleb.1993.DVDRip.XviD.BWTorrents.avi
Format : AVI
Format/Info : Audio Video Interleave
Format profile : OpenDML
File size : 2.05 GiB
Duration : 2h 20mn
Overall bit rate : 2 080 Kbps
Writing application : VirtualDubMod 1.5.10.2 (build 2540/release)
Writing library : VirtualDubMod build 2540/release
Video
ID : 0
Format : MPEG-4 Visual
Format profile : AdvancedSimple@L5
Format settings, BVOP : Yes
Format settings, QPel : Yes
Format settings, GMC : 3 warppoints
Format settings, Matrix : Default (H.263)
Codec ID : XVID
Codec ID/Hint : XviD
Duration : 2h 20mn
Bit rate : 1 616 Kbps
Width : 720 pixels
Height : 376 pixels
Display aspect ratio : 1.915
Frame rate : 29.970 fps
Resolution : 24 bits
Colorimetry : 4:2:0
Scan type : Progressive
Bits/(Pixel*Frame) : 0.199
Stream size : 1.59 GiB (78%)
Writing library : XviD 1.2.1 (UTC 2008-12-04)
Audio
ID : 1
Format : AC-3
Format/Info : Audio Coding 3
Codec ID : 2000
Duration : 2h 20mn
Bit rate mode : Constant
Bit rate : 448 Kbps
Channel(s) : 6 channels
Channel positions : Front: L C R, Surround: L R, LFE
Sampling rate : 48.0 KHz
Stream size : 452 MiB (22%)
Alignment : Split accross interleaves
Interleave, duration : 33 ms (1.00 video frame)
Interleave, preload duration : 500 ms
Скриншоты
Скачать

Скачать торрент! Честный хлеб / Izzat Ki Roti (K. Pappu / K. Паппу) [1993, Индия, Мелодрама, DVDRip] Sub Rus

Как скачивать? · Что такое торрент? · Рейтинг и ограничения

Сайт не распространяет и не хранит электронные версии произведений, а лишь предоставляет доступ к создаваемому пользователями каталогу ссылок на торрент-файлы, которые содержат только списки хеш-сумм

[Профиль] [ЛС]
Показать сообщения:    
Ответить на тему

Текущее время: Сегодня 06:46

Часовой пояс: GMT + 4



Вы не можете начинать темы
Вы не можете отвечать на сообщения
Вы не можете редактировать свои сообщения
Вы не можете удалять свои сообщения
Вы не можете голосовать в опросах
Вы не можете прикреплять файлы к сообщениям
Вы не можете скачивать файлы