Волшебная страна чудес / Magic Wonderland (Фенг Ванг / Feng Wang) [2014 г., Китай, Мультфильм, фэнтези, приключения, WEB-DLRip] Dub + Original (Ch)

Ответить на тему
 
Автор Сообщение

user ®

Стаж: 12 лет

Сообщений: 15145

Пост Пост: #1 от 23-Мар-2015 01:42

[Цитировать]

Волшебная страна чудес / Magic Wonderland
Год выпуска: 2014
Страна: Китай
Жанр: Мультфильм, фэнтези, приключения
Продолжительность: ~ 01:31:20
Перевод: Профессиональный (дублированный)
Русские субтитры: нет
Режиссер: Цзяньрон Ву, Леон Динг
Описание: В небольшой рыбацкой деревушке живет девочка по имени Океана. Она умеет разговаривать с морскими обитателями. Девочка не знает, откуда у нее этот дар и ничего не помнит о своем прошлом. Но однажды к ней является фея волны, которая открывает ей тайну. На самом деле Океана — дочь морской волшебницы, на которую злой дух наложил свои чары. Чтобы спасти маму, юная волшебница должна отправиться в непростое путешествие в далекую Страну Чудес. В пути ее ждет встреча с пиратами, злым колдуном и даже могущественным духом огня, но когда рядом с тобой верные друзья, ничего не страшно.- | Совместный релиз: и -Качество видео: WEB-DLRip (Сэмпл)
Формат видео: AVI
Видео: 720x320 (2.25:1), 25 fps, XviD ~1944 kbps, 0.34 bit/pixel
Аудио #1: 48 kHz, AC3, 2/0 (L,R) ch, ~192 kbps Русский
Аудио #2: 48 kHz, AC3, 2/0 (L,R) ch, ~192 kbps Китайский

MediaInfo
GeneralComplete name : Magic Wonderland.2014.Olu6ka.aviFormat : AVIFormat/Info : Audio Video InterleaveFile size : 1.46 GiBDuration : 1h 29mnOverall bit rate : 2 344 KbpsWriting application : VirtualDubModRus 1.5.10.2 (build 2542/release)Writing library : VirtualDubMod build 2542/release
VideoID : 0Format : MPEG-4 VisualFormat profile : Advanced Simple@L5Format settings, BVOP : 1Format settings, QPel : NoFormat settings, GMC : No warppointsFormat settings, Matrix : CustomCodec ID : XVIDCodec ID/Hint : XviDDuration : 1h 29mnBit rate : 1 946 KbpsWidth : 720 pixelsHeight : 320 pixelsDisplay aspect ratio : 2.25:1Frame rate : 25.000 fpsColor space : YUVChroma subsampling : 4:2:0Bit depth : 8 bitsScan type : ProgressiveCompression mode : LossyBits/(Pixel*Frame) : 0.338Stream size : 1.21 GiB (83%)Writing library : XviD 73
Audio #1ID : 1Format : AC-3Format/Info : Audio Coding 3Mode extension : CM (complete main)Format settings, Endianness : BigCodec ID : 2000Duration : 1h 29mnBit rate mode : ConstantBit rate : 192 KbpsChannel count : 2 channelsChannel positions : Front: L RSampling rate : 48.0 KHzBit depth : 16 bitsCompression mode : LossyStream size : 122 MiB (8%)Alignment : Split accross interleavesInterleave, duration : 40 ms (1.00 video frame)Interleave, preload duration : 500 ms
Audio #2ID : 2Format : AC-3Format/Info : Audio Coding 3Mode extension : CM (complete main)Format settings, Endianness : BigCodec ID : 2000Duration : 1h 29mnBit rate mode : ConstantBit rate : 192 KbpsChannel count : 2 channelsChannel positions : Front: L RSampling rate : 48.0 KHzBit depth : 16 bitsCompression mode : LossyStream size : 122 MiB (8%)Alignment : Split accross interleavesInterleave, duration : 40 ms (1.00 video frame)Interleave, preload duration : 500 ms
Скриншоты Спасибо -Azureus- за исходник!
Скачать

Скачать торрент! Волшебная страна чудес / Magic Wonderland (Фенг Ванг / Feng Wang) [2014 г., Китай, Мультфильм, фэнтези, приключения, WEB-DLRip] Dub + Original (Ch)

Как скачивать? · Что такое торрент? · Рейтинг и ограничения

Сайт не распространяет и не хранит электронные версии произведений, а лишь предоставляет доступ к создаваемому пользователями каталогу ссылок на торрент-файлы, которые содержат только списки хеш-сумм

[Профиль] [ЛС]
Показать сообщения:    
Ответить на тему

Текущее время: Сегодня 11:53

Часовой пояс: GMT + 4



Вы не можете начинать темы
Вы не можете отвечать на сообщения
Вы не можете редактировать свои сообщения
Вы не можете удалять свои сообщения
Вы не можете голосовать в опросах
Вы не можете прикреплять файлы к сообщениям
Вы не можете скачивать файлы