Сказки райского сада (Борис Храневич) [1975, Рисованный мультфильм, DVB]

Ответить на тему
 
Автор Сообщение

user ®

Стаж: 7 лет 7 месяцев

Сообщений: 20008

Пост Пост: #1 от 21-Мар-2015 16:27

[Цитировать]

Сказки райского сада
Страна: СССР
Жанр: Рисованный мультфильм
Продолжительность: 00:07:14
Год выпуска: 1975
Русские субтитры: нет
Режиссёр: Борис Храневич
Описание: Свое видение жития Адама и Евы в райском саду и первородного греха показали создатели мультфильма
Доп. информация: Производство: «Киевнаучфильм»
Автор сценария: Владимир Капустян.
Художник-постановщик: Николай Чурилов.
Оператор: Анатолий Гаврилов.
Композитор: Эдуард Лазарев.
Звукорежиссер: Ирина Чефранова.
Раздача группы:
Исходник: Itartass
Качество: DVB
Формат: MPEG-PS
Видео: MPEG2 Video, 704x576 (4:3), 25 fps, ~2651 kbps, 0.26 bit/pixel
Аудио: MPEG Audio, 2 сh, 48 kHz, 192 kbps
Субтитры: нет
Подробные технические данные
Format : MPEG-PSFile size : 150 MiBDuration : 7mn 14sOverall bit rate mode : VariableOverall bit rate : 2 901 Kbps
VideoID : 224 (0xE0)Format : MPEG VideoFormat version : Version 2Format profile : Main@MainFormat settings, BVOP : YesFormat settings, Matrix : CustomFormat settings, GOP : VariableDuration : 7mn 14sBit rate mode : VariableBit rate : 2 651 KbpsMaximum bit rate : 15.0 MbpsWidth : 704 pixelsHeight : 576 pixelsDisplay aspect ratio : 4:3Frame rate : 25.000 fpsStandard : PALColor space : YUVChroma subsampling : 4:2:0Bit depth : 8 bitsScan type : InterlacedScan order : Top Field FirstCompression mode : LossyBits/(Pixel*Frame) : 0.262Stream size : 137 MiB (91%)
AudioID : 192 (0xC0)Format : MPEG AudioFormat version : Version 1Format profile : Layer 2Duration : 7mn 14sBit rate mode : ConstantBit rate : 192 KbpsChannel(s) : 2 channelsSampling rate : 48.0 KHzCompression mode : LossyStream size : 9.94 MiB (7%)
Скриншоты
Скачать

Скачать торрент!

Как скачивать? · Что такое торрент? · Рейтинг и ограничения

Сайт не распространяет и не хранит электронные версии произведений, а лишь предоставляет доступ к создаваемому пользователями каталогу ссылок на торрент-файлы, которые содержат только списки хеш-сумм

[Профиль] [ЛС]
Показать сообщения:    
Ответить на тему

Текущее время: Сегодня 17:27

Часовой пояс: GMT + 4



Вы не можете начинать темы
Вы не можете отвечать на сообщения
Вы не можете редактировать свои сообщения
Вы не можете удалять свои сообщения
Вы не можете голосовать в опросах
Вы не можете прикреплять файлы к сообщениям
Вы не можете скачивать файлы